Series / TV Shows torrents - Other torrents

Fearless S01E04 (896x504p) torrent

Download Direct: Fearless S01E04 (896x504p) - No Client needed
(2) (0)
Download torrent: Fearless S01E04 (896x504p) torrent download
Torrent created: 07 Jul 2017 01:36:37
Torrent added: 07 Jul 2017 19:22:47 Report this torrent as fake!
Torrent's info hash: 675BC03277934815D1AB208B211741B00CFDF69B
Category: Series / TV Shows / Other
Seeds: - Scraping... Last scraped 4 d ago
Leeches: -
Downloads: -
Announce(s):
Tracker S L DL
http://bigfoot1942.sektori.org:6969/announce---
http://tracker2.wasabii.com.tw:6969/announce---
http://tracker.mg64.net:6881/announce---
http://bt.artvid.ru:6969/announce---
http://open.acgtracker.com:1096/announce---
http://tracker.opentrackr.org/announce
http://announce.torrentsmd.com:6969/announce
http://tracker.trackerfix.com/announce
udp://tracker.openbittorrent.com:80/announce
udp://explodie.org:6969/announce
udp://mgtracker.org:6969/announce
udp://asnet.pw:2710/announce
udp://tracker.mgtracker.org:2710/announce
udp://tracker4.piratux.com:6969/announce
udp://tracker.trackerfix.com:80/announce
udp://tracker.pomf.se:80/announce
udp://torrent.gresille.org:80/announce
udp://tracker.x4w.co:6969/announce
udp://castradio.net:6969/announce
udp://p4p.arenabg.com:1337
udp://ipv4.tracker.harry.lu:80/announce
udp://inferno.demonoid.ooo:3389/announce
udp://tracker.sktorrent.net:6969/announce
udp://tracker.blackunicorn.xyz:6969/announce
udp://tracker.internetwarriors.net:1337/announce
udp://exodus.desync.com:6969/announce
udp://tracker.pirateparty.gr:6969/announce
udp://p4p.arenabg.ch:1337/announce
udp://glotorrents.pw:6969/announce
udp://eddie4.nl:6969/announce
udp://9.rarbg.me:2710/announce
udp://tracker.opentrackr.org:1337/announce
udp://tracker.zer0day.to:1337/announce
udp://9.rarbg.to:2710/announce
http://tracker.opentrackr.org:1337/announce
udp://tracker.leechers-paradise.org:6969/announce
udp://tracker.coppersurfer.tk:6969/announce
udp://inferno.demonoid.pw:3391/announce
udp://tracker.piratepublic.com:1337/announce
udp://p4p.arenabg.com:1337/announce
udp://9.rarbg.me:2780/announce
Total Size: 491.31 MB
Files:
Fealress S01E04/Fealress S01E04.mp4 - 490.65 MB
Fealress S01E04/Fealress S01E04.jpg - 609.26 KB
Fealress S01E04/About this torrent.txt - 2.08 KB
Fealress S01E04/Fealress S01E04.srt - 60.88 KB
Fealress S01E04/Torrent Downloaded From 1337x.to.txt - 0 B
Fealress S01E04/Torrent Downloaded From Katcr.co - Kickasstorrents.txt - 72 B
Fealress S01E04/Torrent_downloaded_from_Demonoid_-_www.demonoid.pw_.txt - 59 B

Description

Fearless S01E04 (896*504p)

Contemporary thriller. The forensic evidence seems to prove Kevin's innocence, until Heather and the prosecution deliver new evidence that gives Emma an impossible dilemma.

(with soft subtitles)

First broadcast: 6 July 2017
Duration:  45 minutes



Media info:
General
Format : MPEG-4
Format profile : Base Media
Codec ID : isom (isom/iso2/avc1/mp41)
File size : 491 MiB
Duration : 46mn 24s
Overall bit rate : 1 478 Kbps
Writing application : Lavf57.25.100

Video
ID : 1
Format : AVC
Format/Info : Advanced Video Codec
Format profile : [email protected]/* */
Format settings, CABAC : Yes
Format settings, ReFrames : 6 frames
Codec ID : avc1
Codec ID/Info : Advanced Video Coding
Duration : 46mn 24s
Bit rate : 1 376 Kbps
Nominal bit rate : 1 704 Kbps
Width : 896 pixels
Height : 504 pixels
Display aspect ratio : 16:9
Frame rate mode : Constant
Frame rate : 25.000 fps
Color space : YUV
Chroma subsampling : 4:2:0
Bit depth : 8 bits
Scan type : Progressive
Bits/(Pixel*Frame) : 0.122
Stream size : 457 MiB (93%)
Writing library : x264 core 138
Encoding settings : cabac=1 / ref=6 / deblock=1:-1:-1 / analyse=0x3:0x113 / me=umh / subme=8 / psy=1 / psy_rd=0.60:1.00 / mixed_ref=1 / me_range=16 / chroma_me=1 / trellis=2 / 8x8dct=1 / cqm=0 / deadzone=21,11 / fast_pskip=1 / chroma_qp_offset=-4 / threads=8 / lookahead_threads=1 / sliced_threads=0 / nr=0 / decimate=1 / interlaced=0 / bluray_compat=0 / constrained_intra=0 / bframes=3 / b_pyramid=0 / b_adapt=2 / b_bias=0 / direct=3 / weightb=1 / open_gop=0 / weightp=2 / keyint=150 / keyint_min=15 / scenecut=0 / intra_refresh=0 / rc_lookahead=60 / rc=cbr / mbtree=1 / bitrate=1704 / ratetol=1.0 / qcomp=0.60 / qpmin=0 / qpmax=69 / qpstep=4 / vbv_maxrate=1704 / vbv_bufsize=1278 / nal_hrd=none / filler=0 / ip_ratio=1.40 / aq=1:1.40

Audio
ID : 2
Format : AAC
Format/Info : Advanced Audio Codec
Format profile : LC
Codec ID : 40
Duration : 46mn 24s
Bit rate mode : Constant
Bit rate : 96.0 Kbps
Channel(s) : 2 channels
Channel positions : Front: L R
Sampling rate : 48.0 KHz
Frame rate : 46.875 fps (1024 spf)
Compression mode : Lossy
Stream size : 31.9 MiB (7%)

Comments:

paco107Submitted 2017-11-02 18:48:23
aa