Series / TV Shows torrents - Other torrents

Who Do You Think You Are S14E01 Charles Dance (720p HD, soft Eng ... torrent

Download Direct: Who Do You Think You Are S14E01 Charles Dance (720p HD, soft Eng ... - No Client needed
(0) (0)
Download torrent: Who Do You Think You Are S14E01 Charles Dance (720p HD, soft Eng ... torrent download
Torrent created: 07 Jul 2017 00:51:00
Torrent added: 07 Jul 2017 19:22:42 Report this torrent as fake!
Torrent's info hash: 6AEAE5BAECA568C8D1BB5C7EC462B346E93E4FAB
Category: Series / TV Shows / Other
Seeds: - Scraping... Last scraped ...
Leeches: -
Downloads: -
Announce(s):
Tracker S L DL
http://bigfoot1942.sektori.org:6969/announce---
http://tracker2.wasabii.com.tw:6969/announce---
http://tracker.mg64.net:6881/announce---
http://bt.artvid.ru:6969/announce---
http://open.acgtracker.com:1096/announce---
http://tracker.opentrackr.org/announce
http://announce.torrentsmd.com:6969/announce
http://tracker.trackerfix.com/announce
udp://tracker.openbittorrent.com:80/announce
udp://explodie.org:6969/announce
udp://mgtracker.org:6969/announce
udp://asnet.pw:2710/announce
udp://tracker.mgtracker.org:2710/announce
udp://tracker4.piratux.com:6969/announce
udp://tracker.trackerfix.com:80/announce
udp://tracker.pomf.se:80/announce
udp://torrent.gresille.org:80/announce
udp://tracker.x4w.co:6969/announce
udp://castradio.net:6969/announce
udp://p4p.arenabg.com:1337
udp://ipv4.tracker.harry.lu:80/announce
udp://inferno.demonoid.ooo:3389/announce
udp://tracker.sktorrent.net:6969/announce
udp://tracker.blackunicorn.xyz:6969/announce
udp://tracker.internetwarriors.net:1337/announce
udp://exodus.desync.com:6969/announce
udp://tracker.pirateparty.gr:6969/announce
udp://p4p.arenabg.ch:1337/announce
udp://glotorrents.pw:6969/announce
udp://eddie4.nl:6969/announce
udp://9.rarbg.me:2710/announce
udp://tracker.opentrackr.org:1337/announce
udp://tracker.zer0day.to:1337/announce
udp://9.rarbg.to:2710/announce
http://tracker.opentrackr.org:1337/announce
udp://tracker.leechers-paradise.org:6969/announce
udp://tracker.coppersurfer.tk:6969/announce
udp://inferno.demonoid.pw:3391/announce
udp://tracker.piratepublic.com:1337/announce
udp://p4p.arenabg.com:1337/announce
udp://9.rarbg.me:2780/announce
Total Size: 996.05 MB
Files:
Who Do You Think You Are S14E01 Charles Dance/Who Do You Think You Are S14E01 Charles Dance.mp4 - 994.97 MB
Who Do You Think You Are S14E01 Charles Dance/Torrent Downloaded From 1337x.to.txt - 0 B
Who Do You Think You Are S14E01 Charles Dance/Torrent Downloaded From Katcr.co - Kickasstorrents.txt - 72 B
Who Do You Think You Are S14E01 Charles Dance/Torrent_downloaded_from_Demonoid_-_www.demonoid.pw_.txt - 59 B
Who Do You Think You Are S14E01 Charles Dance/Who Do You Think You Are S14E01 Charles Dance.jpg - 983.97 KB
Who Do You Think You Are S14E01 Charles Dance/About this torrent.txt - 1.88 KB
Who Do You Think You Are S14E01 Charles Dance/Who Do You Think You Are S14E01 Charles Dance.srt - 116.55 KB

Description

Who Do You Think You Are S14E01 Charles Dance (720p HD, soft Eng subs)

Actor Charles Dance has made his name playing aristocrats, including Tywin Lannister in HBO's Game of Thrones. But the upstairs world Charles inhabits on screen is nothing like his own background as his mum was an under house parlour maid. Charles wants to know if he comes from a long line of servants or if he can uncover some grander origins.

He is also determined to learn about his dad, who died when Charles was four. Charles knows hardly anything about him, not even when he was born. Charles's search for information takes him to the other side of the world to meet close relatives he never knew he had.

(with soft subtitles)

First broadcast: 6 July 2017
Duration: 1 hour



Media info:-
General
Format : MPEG-4
Format profile : Base Media
Codec ID : isom (isom/iso2/avc1/mp41)
File size : 995 MiB
Duration : 58mn 5s
Overall bit rate mode : Variable
Overall bit rate : 2 395 Kbps
Writing application : Lavf57.25.100


Video
ID : 1
Format : AVC
Format/Info : Advanced Video Codec
Format profile : [email protected]/* */
Format settings, CABAC : Yes
Format settings, ReFrames : 2 frames
Codec ID : avc1
Codec ID/Info : Advanced Video Coding
Duration : 58mn 5s
Bit rate mode : Variable
Bit rate : 2 296 Kbps
Maximum bit rate : 3 500 Kbps
Width : 1 280 pixels
Height : 720 pixels
Display aspect ratio : 16:9
Frame rate mode : Constant
Frame rate : 25.000 fps
Color space : YUV
Chroma subsampling : 4:2:0
Bit depth : 8 bits
Scan type : Progressive
Bits/(Pixel*Frame) : 0.100
Stream size : 954 MiB (96%)

Audio
ID : 2
Format : AAC
Format/Info : Advanced Audio Codec
Format profile : LC
Codec ID : 40
Duration : 58mn 5s
Bit rate mode : Variable
Bit rate : 93.5 Kbps
Maximum bit rate : 96.4 Kbps
Channel(s) : 2 channels
Channel positions : Front: L R
Sampling rate : 48.0 KHz
Frame rate : 46.875 fps (1024 spf)
Compression mode : Lossy
Stream size : 38.8 MiB (4%)

Comments: