Movies torrents - Other torrents

Fences - Barriere (2016).H264.Italian.English.Ac3.5.1.sub.ita.eng... torrent

Download Direct: Fences - Barriere (2016).H264.Italian.English.Ac3.5.1.sub.ita.eng... - No Client needed
(0) (0)
Download torrent: Fences - Barriere (2016).H264.Italian.English.Ac3.5.1.sub.ita.eng... torrent download
Torrent created: 29 Jun 2017 08:48:06
Torrent added: 07 Jul 2017 19:21:22 Report this torrent as fake!
Torrent's info hash: E2BB21552824D679AE4A3007D9C11070555A0962
Category: Movies / Other
Seeds: - Scraping... Last scraped ...
Leeches: -
Downloads: -
Announce(s):
Total Size: 1.98 GB
Files:
Barriere (2016).H264.ita.eng.sub.ita.eng.iCV-MIRCrew/Barriere (2016).H264.ita.eng.sub.ita.eng.iCV-MIRCrew.eng.srt - 205.76 KB
Barriere (2016).H264.ita.eng.sub.ita.eng.iCV-MIRCrew/Barriere (2016).H264.ita.eng.sub.ita.eng.iCV-MIRCrew.ita.srt - 156.12 KB
Barriere (2016).H264.ita.eng.sub.ita.eng.iCV-MIRCrew/Barriere (2016).H264.ita.eng.sub.ita.eng.iCV-MIRCrew.mkv - 1.98 GB
Barriere (2016).H264.ita.eng.sub.ita.eng.iCV-MIRCrew/Barriere (2016).H264.ita.eng.sub.ita.eng.iCV-MIRCrew.srt - 5.26 KB

Description

Fences - Barriere (2016).H264.Italian.English.Ac3.5.1.sub.ita.iCV-MIRCrew




NO FOUND ONLY ORIGINAL RELEASE





My release is always in double track audio italian and Original audio
for select it use VLC or dvd player home
not use wmp

Barriere - Fences (2016)







Titolo originale Fences
Lingua originale inglese
Paese di produzione Stati Uniti d'America
Anno 2016
Durata 138 min
Rapporto 2,35 : 1
Genere drammatico
Regia Denzel Washington
Soggetto August Wilson (opera teatrale)
Sceneggiatura August Wilson
Tony Kushner (non accreditato)
Produttore Todd Black, Scott Rudin, Denzel Washington
Produttore esecutivo Molly Allen, Eli Bush, Jason Cloth, Aaron L. Gilbert, Charles D. King, Kim Roth
Casa di produzione Bron Studios, MACRO, Paramount Pictures, Scott Rudin Productions
Distribuzione (Italia) Universal Pictures
Fotografia Charlotte Bruus Christensen
Montaggio Hughes Winborne
Musiche Marcelo Zarvos
Scenografia David Gropman





   Denzel Washington: Troy Maxson
   Viola Davis: Rose Lee Maxson
   Stephen Henderson: Jim Bono
   Jovan Adepo: Cory Maxson
   Russell Hornsby: Lyons Maxson
   Mykelti Williamson: Gabriel Maxson
   Saniyya Sidney: Raynell Maxson




Troy Maxson è un'ex promessa del baseball che lavora come netturbino a Pittsburgh e vive una vita modesta, ma felice, insieme alla sua famiglia. Dopo il lavoro torna sempre a casa per insegnare ai suoi figli cosa è necessario fare per costruirsi un futuro, ma lo fa con toni spesso troppo accesi e rigidi. .............



A working-class African-American father tries to raise his family in the 1950s, while coming to terms with the events of his life.
















[spoiler]
General
Unique ID                                : 226684777041283519839951403285026306511 (0xAA89E666AA6F6808B0D2FE758C3DF9CF)
Complete name                            : Barriere (2016).H264.ita.eng.sub.ita.eng.iCV-MIRCrew.mkv
Format                                   : Matroska
Format version                           : Version 2
File size                                : 1.98 GiB
Duration                                 : 2h 18mn
Overall bit rate                         : 2 044 Kbps
Movie name                               : www.icv-crew.org
Encoded date                             : UTC 2017-06-27 17:23:16
Writing application                      : Lavf54.63.100
Writing library                          : Lavf54.63.100
COPYRIGHT                                : robbyrs

Video
ID                                       : 1
Format                                   : AVC
Format/Info                              : Advanced Video Codec
Format profile                           : [email protected]/* */
Format settings, CABAC                   : Yes
Format settings, ReFrames                : 2 frames
Codec ID                                 : V_MPEG4/ISO/AVC
Duration                                 : 2h 18mn
Bit rate                                 : 1 290 Kbps
Width                                    : 720 pixels
Height                                   : 304 pixels
Display aspect ratio                     : 2.40:1
Frame rate mode                          : Variable
Frame rate                               : 23.976 fps
Color space                              : YUV
Chroma subsampling                       : 4:2:0
Bit depth                                : 8 bits
Scan type                                : Progressive
Bits/(Pixel*Frame)                       : 0.246
Stream size                              : 1.20 GiB (60%)
Writing library                          : x264 core 130 r2273
Encoding settings                        : cabac=1 / ref=2 / deblock=1:0:0 / analyse=0x1:0x131 / me=hex / subme=7 / psy=1 / psy_rd=1.00:0.00 / mixed_ref=0 / me_range=16 / chroma_me=1 / trellis=1 / 8x8dct=0 / cqm=0 / deadzone=21,11 / fast_pskip=1 / chroma_qp_offset=-2 / threads=12 / lookahead_threads=2 / sliced_threads=0 / nr=0 / decimate=1 / interlaced=0 / bluray_compat=0 / constrained_intra=0 / bframes=3 / b_pyramid=0 / b_adapt=1 / b_bias=0 / direct=3 / weightb=1 / open_gop=0 / weightp=2 / keyint=230 / keyint_min=23 / scenecut=40 / intra_refresh=0 / rc_lookahead=40 / rc=abr / mbtree=1 / bitrate=1290 / ratetol=1.0 / qcomp=0.60 / qpmin=10 / qpmax=69 / qpstep=4 / vbv_maxrate=24000 / vbv_bufsize=24000 / nal_hrd=none / ip_ratio=1.40 / aq=1:1.00
Language                                 : Italian
Default                                  : Yes
Forced                                   : No
DURATION                                 : 02:18:51.156000000
NUMBER_OF_FRAMES                         : 199748
NUMBER_OF_BYTES                          : 8001104746
_STATISTICS_WRITING_APP                  : mkvmerge v8.7.0 ('All of the above') 64bit
_STATISTICS_WRITING_DATE_UTC             : 2017-06-11 15:06:47
_STATISTICS_TAGS                         : BPS DURATION NUMBER_OF_FRAMES NUMBER_OF_BYTES

Audio #1
ID                                       : 2
Format                                   : AC-3
Format/Info                              : Audio Coding 3
Mode extension                           : CM (complete main)
Codec ID                                 : A_AC3
Duration                                 : 2h 18mn
Bit rate mode                            : Constant
Bit rate                                 : 384 Kbps
Channel(s)                               : 6 channels
Channel positions                        : Front: L C R, Side: L R, LFE
Sampling rate                            : 48.0 KHz
Bit depth                                : 16 bits
Compression mode                         : Lossy
Delay relative to video                  : 1mn 5s
Stream size                              : 381 MiB (19%)
Title                                    : AC3 ITA
Language                                 : Italian
Default                                  : Yes
Forced                                   : No
DURATION                                 : 02:18:51.520000000
NUMBER_OF_FRAMES                         : 260360
NUMBER_OF_BYTES                          : 399912960
_STATISTICS_WRITING_APP                  : mkvmerge v8.7.0 ('All of the above') 64bit
_STATISTICS_WRITING_DATE_UTC             : 2017-06-11 15:06:47
_STATISTICS_TAGS                         : BPS DURATION NUMBER_OF_FRAMES NUMBER_OF_BYTES

Audio #2
ID                                       : 3
Format                                   : AC-3
Format/Info                              : Audio Coding 3
Mode extension                           : CM (complete main)
Codec ID                                 : A_AC3
Duration                                 : 2h 18mn
Bit rate mode                            : Constant
Bit rate                                 : 384 Kbps
Channel(s)                               : 6 channels
Channel positions                        : Front: L C R, Side: L R, LFE
Sampling rate                            : 48.0 KHz
Bit depth                                : 16 bits
Compression mode                         : Lossy
Delay relative to video                  : 1mn 5s
Stream size                              : 381 MiB (19%)
Language                                 : English
Default                                  : No
Forced                                   : No
DURATION                                 : 02:18:51.200000000
NUMBER_OF_FRAMES                         : 781050
NUMBER_OF_BYTES                          : 1571472720
_STATISTICS_WRITING_APP                  : mkvmerge v8.7.0 ('All of the above') 64bit
_STATISTICS_WRITING_DATE_UTC             : 2017-06-11 15:06:47
_STATISTICS_TAGS                         : BPS DURATION NUMBER_OF_FRAMES NUMBER_OF_BYTES

Text #1
ID                                       : 4
Format                                   : ASS
Codec ID                                 : S_TEXT/ASS
Codec ID/Info                            : Advanced Sub Station Alpha
Compression mode                         : Lossless
Title                                    : FORCED
Language                                 : Italian
Default                                  : Yes
Forced                                   : No
DURATION                                 : 02:08:41.054000000
NUMBER_OF_FRAMES                         : 67
NUMBER_OF_BYTES                          : 2803
_STATISTICS_WRITING_APP                  : mkvmerge v8.7.0 ('All of the above') 64bit
_STATISTICS_WRITING_DATE_UTC             : 2017-06-11 15:06:47
_STATISTICS_TAGS                         : BPS DURATION NUMBER_OF_FRAMES NUMBER_OF_BYTES

Text #2
ID                                       : 5
Format                                   : ASS
Codec ID                                 : S_TEXT/ASS
Codec ID/Info                            : Advanced Sub Station Alpha
Compression mode                         : Lossless
Title                                    : REGOLARI
Language                                 : Italian
Default                                  : No
Forced                                   : No
DURATION                                 : 02:11:18.879000000
NUMBER_OF_FRAMES                         : 1864
NUMBER_OF_BYTES                          : 85298
_STATISTICS_WRITING_APP                  : mkvmerge v8.7.0 ('All of the above') 64bit
_STATISTICS_WRITING_DATE_UTC             : 2017-06-11 15:06:47
_STATISTICS_TAGS                         : BPS DURATION NUMBER_OF_FRAMES NUMBER_OF_BYTES

Text #3
ID                                       : 6
Format                                   : ASS
Codec ID                                 : S_TEXT/ASS
Codec ID/Info                            : Advanced Sub Station Alpha
Compression mode                         : Lossless
Title                                    : NON UDENTI
Language                                 : English
Default                                  : No
Forced                                   : No
DURATION                                 : 02:11:38.973000000
NUMBER_OF_FRAMES                         : 2621
NUMBER_OF_BYTES                          : 104338
_STATISTICS_WRITING_APP                  : mkvmerge v8.7.0 ('All of the above') 64bit
_STATISTICS_WRITING_DATE_UTC             : 2017-06-11 15:06:47
_STATISTICS_TAGS                         : BPS DURATION NUMBER_OF_FRAMES NUMBER_OF_BYTES

Menu
00:00:00.000                             : :Chapter 01
00:06:38.398                             : :Chapter 02
00:13:45.241                             : :Chapter 03
00:21:06.306                             : :Chapter 04
00:30:06.262                             : :Chapter 05
00:37:17.818                             : :Chapter 06
00:45:10.624                             : :Chapter 07
00:51:49.147                             : :Chapter 08
00:57:56.931                             : :Chapter 09
01:04:59.103                             : :Chapter 10
01:13:11.845                             : :Chapter 11
01:23:34.759                             : :Chapter 12
01:29:57.850                             : :Chapter 13
01:36:18.147                             : :Chapter 14
01:43:13.312                             : :Chapter 15
01:54:28.152                             : :Chapter 16
02:01:40.209                             : :Chapter 17
02:10:13.806                             : :Chapter 18


[/spoiler]



Comments: