Movies torrents - Other torrents

Ghost.in.the.Shell.2017.1080p.WEB-DL.DD5.1.H264-STRiFE torrent

Download Direct: Ghost.in.the.Shell.2017.1080p.WEB-DL.DD5.1.H264-STRiFE - No Client needed
(0) (0)
Download torrent: Ghost.in.the.Shell.2017.1080p.WEB-DL.DD5.1.H264-STRiFE torrent download
Torrent created: 06 Jul 2017 14:49:18
Torrent added: 07 Jul 2017 19:20:04 Report this torrent as fake!
Torrent's info hash: 0F2DAB7269FC38D73EC7E18D8C00C03169C601E2
Category: Movies / Other
Seeds: - Scraping... Last scraped ...
Leeches: -
Downloads: -
Announce(s):
Tracker S L DL
http://bigfoot1942.sektori.org:6969/announce---
http://tracker2.wasabii.com.tw:6969/announce---
http://tracker.mg64.net:6881/announce---
http://bt.artvid.ru:6969/announce---
http://open.acgtracker.com:1096/announce---
http://tracker.opentrackr.org/announce
http://announce.torrentsmd.com:6969/announce
http://tracker.trackerfix.com/announce
udp://tracker.openbittorrent.com:80/announce
udp://explodie.org:6969/announce
udp://mgtracker.org:6969/announce
udp://asnet.pw:2710/announce
udp://tracker.mgtracker.org:2710/announce
udp://tracker4.piratux.com:6969/announce
udp://tracker.trackerfix.com:80/announce
udp://tracker.pomf.se:80/announce
udp://torrent.gresille.org:80/announce
udp://tracker.x4w.co:6969/announce
udp://castradio.net:6969/announce
udp://p4p.arenabg.com:1337
udp://ipv4.tracker.harry.lu:80/announce
udp://inferno.demonoid.ooo:3389/announce
udp://tracker.sktorrent.net:6969/announce
udp://tracker.blackunicorn.xyz:6969/announce
udp://tracker.internetwarriors.net:1337/announce
udp://exodus.desync.com:6969/announce
udp://tracker.pirateparty.gr:6969/announce
udp://p4p.arenabg.ch:1337/announce
udp://glotorrents.pw:6969/announce
udp://eddie4.nl:6969/announce
udp://9.rarbg.me:2710/announce
udp://tracker.opentrackr.org:1337/announce
udp://tracker.zer0day.to:1337/announce
udp://9.rarbg.to:2710/announce
http://tracker.opentrackr.org:1337/announce
udp://tracker.leechers-paradise.org:6969/announce
udp://tracker.coppersurfer.tk:6969/announce
udp://public.popcorn-tracker.org:6969/announce
udp://tracker.grepler.com:6969/announce
udp://p4p.arenabg.com:1337/announce
udp://shadowshq.yi.org:6969/announce
Total Size: 4.05 GB
Files:
Ghost.in.the.Shell.2017.1080p.WEB-DL.DD5.1.H264-STRiFE/Ghost.in.the.Shell.2017.1080p.WEB-DL.DD5.1.H264-STRiFE.mkv - 4.05 GB

Description

Ghost.in.the.Shell.2017.1080p.WEB-DL.DD5.1.H264-STRiFE

ImDb: http://www.imdb.com/title/tt1219827



Complete name : Ghost.in.the.Shell.2017.1080p.WEB-DL.DD5.1.H264-STRiFE.mkv
Format : Matroska
Format version : Version 4 / Version 2
File size : 4.05 GiB
Duration : 1 h 47 min
Overall bit rate : 5 411 kb/s
Encoded date : UTC 2017-07-06 03:06:40
Writing application : mkvmerge v7.8.0 ('River Man') 64bit built on Mar 27 2015 16:31:37
Writing library : libebml v1.3.1 + libmatroska v1.4.2

Video
ID : 1
Format : AVC
Format/Info : Advanced Video Codec
Format profile : [email protected]/* */
Format settings, CABAC : Yes
Format settings, ReFrames : 4 frames
Codec ID : V_MPEG4/ISO/AVC
Duration : 1 h 47 min
Bit rate : 5 026 kb/s
Width : 1 920 pixels
Height : 1 080 pixels
Display aspect ratio : 16:9
Frame rate mode : Constant
Frame rate : 23.976 (24000/1001) FPS
Color space : YUV
Chroma subsampling : 4:2:0
Bit depth : 8 bits
Scan type : Progressive
Bits/(Pixel*Frame) : 0.101
Stream size : 3.76 GiB (93%)
Language : English
Default : Yes
Forced : No
Color range : Limited
Color primaries : BT.709
Transfer characteristics : BT.709
Matrix coefficients : BT.709

Audio
ID : 2
Format : AC-3
Format/Info : Audio Coding 3
Format settings, Endianness : Big
Codec ID : A_AC3
Duration : 1 h 46 min
Bit rate mode : Constant
Bit rate : 384 kb/s
Channel(s) : 6 channels
Channel positions : Front: L C R, Side: L R, LFE
Sampling rate : 48.0 kHz
Frame rate : 31.250 FPS (1536 spf)
Bit depth : 16 bits
Compression mode : Lossy
Stream size : 294 MiB (7%)
Language : English
Service kind : Complete Main
Default : Yes
Forced : No






Click To View Screenshot

Click To View Screenshot

Click To View Screenshot

Comments: