Movies torrents - Other torrents

Despicable Me 3 2017 NEW TS x264 AC3 TiTAN [SD] torrent

Download Direct: Despicable Me 3 2017 NEW TS x264 AC3 TiTAN [SD] - No Client needed
(1) (9)
Download torrent: Despicable Me 3 2017 NEW TS x264 AC3 TiTAN [SD] torrent download
Torrent created: 06 Jul 2017 04:30:02
Torrent added: 07 Jul 2017 19:01:31 Report this torrent as fake!
Torrent's info hash: 3DA1B86AF555DEB987536BC7553394E0C40035E2
Category: Movies / Other
Seeds: 5 Scraping... Last scraped 10 d ago
Leeches: 4
Downloads: 4968
Announce(s):
Tracker S L DL
udp://tracker.leechers-paradise.org:696944174
udp://zer0day.ch:1337---
udp://open.demonii.com:1337---
udp://tracker.coppersurfer.tk:6969544968
udp://exodus.desync.com:6969---
Total Size: 1.45 GB
Files:
www.torrenting.com - Despicable Me 3 2017 NEW TS x264 AC3 TiTAN/Despicable Me 3 2017 NEW TS x264 AC3 TiTAN.mkv - 1.45 GB
www.torrenting.com - Despicable Me 3 2017 NEW TS x264 AC3 TiTAN/Despicable Me 3 2017 NEW TS x264 AC3 TiTAN.nfo - 3.16 KB
www.torrenting.com - Despicable Me 3 2017 NEW TS x264 AC3 TiTAN/Torrent Downloaded From www.torrenting.com.txt - 73 B

Description







Summary : Gru meets his long-lost charming, cheerful, and more successful twin brother Dru who wants to team up with him for one last criminal heist.



https://www.imdb.com/title/tt3469046/

Source: CPG

better cam here, just was real dull, and needed a slight perspective
adjustment. Also top and bottom borders needed fixing.. then just removed
watermarks without loss of video.. Came out nice..Enjoy

General

Format : Matroska
Format version : Version 2
File size : 1.56 GiB
Duration : 1h 21mn
Overall bit rate mode : Variable
Overall bit rate : 2 736 Kbps


Video

ID : 1
Format : AVC
Format/Info : Advanced Video Codec
Format profile : [email protected]/* */
Format settings, CABAC : Yes
Format settings, ReFrames : 3 frames
Codec ID : V_MPEG4/ISO/AVC
Duration : 1h 21mn
Bit rate mode : Variable
Bit rate : 2 350 Kbps
Maximum bit rate : 40.0 Mbps
Width : 720 pixels
Height : 304 pixels
Display aspect ratio : 2.35:1
Frame rate mode : Constant
Frame rate : 30.000 fps
Color space : YUV
Chroma subsampling : 4:2:0
Bit depth : 8 bits
Scan type : Progressive
Bits/(Pixel*Frame) : 0.358
Stream size : 1.31 GiB (84%)
Default : Yes
Forced : No
Color primaries : BT.709
Transfer characteristics : BT.709
Matrix coefficients : BT.709

Audio

ID : 2
Format : AC-3
Format/Info : Audio Coding 3
Mode extension : CM (complete main)
Format settings, Endianness : Big
Codec ID : A_AC3
Duration : 1h 21mn
Bit rate mode : Constant
Bit rate : 384 Kbps
Channel(s) : 2 channels
Channel positions : Front: L R
Sampling rate : 44.1 KHz
Bit depth : 16 bits
Compression mode : Lossy
Stream size : 225 MiB (14%)
Default : Yes
Forced : No












Thanks to the original encoder and uploader



Comments: