Movies torrents - Other torrents

Despicable Me 3 2017 NEW HDTS XviD-VAiN [SD] torrent

Download Direct: Despicable Me 3 2017 NEW HDTS XviD-VAiN [SD] - No Client needed
(0) (0)
Download torrent: Despicable Me 3 2017 NEW HDTS XviD-VAiN [SD] torrent download
Torrent created: 06 Jul 2017 05:27:03
Torrent added: 07 Jul 2017 19:01:28 Report this torrent as fake!
Torrent's info hash: 160651806AB937B174C7BF379B4D28D27154A55F
Category: Movies / Other
Seeds: - Scraping... Last scraped ...
Leeches: -
Downloads: -
Announce(s):
Tracker S L DL
udp://tracker.openbittorrent.com:80---
udp://open.demonii.com:1337---
udp://tracker.coppersurfer.tk:6969---
udp://tracker.opentrackr.org:1337/announce---
Total Size: 1.36 GB
Files:
Despicable.Me 3.2017.NEW.HDTS.XviD-VAiN/Despicable.Me 3.2017.NEW.HDTS.XviD-VAiN-muxed (1).avi - 1.36 GB
Despicable.Me 3.2017.NEW.HDTS.XviD-VAiN/VAiN.nfo - 2.83 KB

Description







Summary : Gru meets his long-lost charming, cheerful, and more successful twin brother Dru who wants to team up with him for one last criminal heist.





P R E S E N T S . . . .
Despicable.Me 3.2017.NEW.HDTS.XviD-VAiN
iMDB........: https://www.imdb.com/title/tt3469046/
T E C H N i C A L . i N F O . . .
Format                      : AVI
Format/Info                 : Audio Video Interleave
File size                   : 1.36 GiB
Duration                    : 1 h 21 min
Overall bit rate            : 2 375 kb/s

Video
ID                          : 0
Format                      : MPEG-4 Visual
Format profile              : Advanced [email protected]/* */
Format settings, BVOP       : 1
Format settings, QPel       : No
Format settings, GMC        : No warppoints
Format settings, Matrix     : Default (H.263)
Codec ID                    : XVID
Codec ID/Hint               : XviD
Duration                    : 1 h 21 min
Bit rate                    : 2 170 kb/s
Width                       : 720 pixels
Height                      : 288 pixels
Display aspect ratio        : 2.500
Frame rate                  : 30.000 FPS
Color space                 : YUV
Chroma subsampling          : 4:2:0
Bit depth                   : 8 bits
Scan type                   : Progressive
Compression mode            : Lossy
Bits/(Pixel*Frame)          : 0.349
Stream size                 : 1.24 GiB (91%)
Writing library             : XviD 67

Audio
ID                          : 1
Format                      : MPEG Audio
Format version              : Version 1
Format profile              : Layer 3
Mode                        : Joint stereo
Mode extension              : MS Stereo
Codec ID                    : 55
Codec ID/Hint               : MP3
Duration                    : 1 h 21 min
Bit rate mode               : Constant
Bit rate                    : 192 kb/s
Channel(s)                  : 2 channels
Sampling rate               : 44.1 kHz
Compression mode            : Lossy
Stream size                 : 112 MiB (8%)
Alignment                   : Aligned on interleaves
Interleave, duration        : 26  ms (0.78 video frame)
Interleave, preload duratio : 182  ms











Thanks to the original encoder and uploader



Comments: