Movies torrents - Other torrents

The Fate of the Furious (2017) 1080p BluRay x264 DTS 5.1 - Hon3y torrent

Download Direct: The Fate of the Furious (2017) 1080p BluRay x264 DTS 5.1 - Hon3y - No Client needed
(0) (0)
Download torrent: The Fate of the Furious (2017) 1080p BluRay x264 DTS 5.1 - Hon3y torrent download
Torrent created: 06 Jul 2017 10:50:48
Torrent added: 07 Jul 2017 19:00:48 Report this torrent as fake!
Torrent's info hash: 25E9AE31F4CE31A30CA83D491CA601D371E2A8FD
Category: Movies / Other
Seeds: - Scraping... Last scraped ...
Leeches: -
Downloads: -
Announce(s):
Tracker S L DL
http://bigfoot1942.sektori.org:6969/announce---
http://tracker2.wasabii.com.tw:6969/announce---
http://tracker.mg64.net:6881/announce---
http://bt.artvid.ru:6969/announce---
http://open.acgtracker.com:1096/announce---
http://tracker.opentrackr.org/announce
http://announce.torrentsmd.com:6969/announce
http://tracker.trackerfix.com/announce
udp://tracker.openbittorrent.com:80/announce
udp://explodie.org:6969/announce
udp://mgtracker.org:6969/announce
udp://asnet.pw:2710/announce
udp://tracker.mgtracker.org:2710/announce
udp://tracker4.piratux.com:6969/announce
udp://tracker.trackerfix.com:80/announce
udp://tracker.pomf.se:80/announce
udp://torrent.gresille.org:80/announce
udp://tracker.x4w.co:6969/announce
udp://castradio.net:6969/announce
udp://p4p.arenabg.com:1337
udp://ipv4.tracker.harry.lu:80/announce
udp://inferno.demonoid.ooo:3389/announce
udp://tracker.sktorrent.net:6969/announce
udp://tracker.blackunicorn.xyz:6969/announce
udp://tracker.internetwarriors.net:1337/announce
udp://exodus.desync.com:6969/announce
udp://tracker.pirateparty.gr:6969/announce
udp://p4p.arenabg.ch:1337/announce
udp://glotorrents.pw:6969/announce
udp://eddie4.nl:6969/announce
udp://9.rarbg.me:2710/announce
udp://tracker.opentrackr.org:1337/announce
udp://tracker.zer0day.to:1337/announce
udp://9.rarbg.to:2710/announce
http://tracker.opentrackr.org:1337/announce
udp://tracker.leechers-paradise.org:6969/announce
udp://tracker.coppersurfer.tk:6969/announce
udp://inferno.demonoid.pw:3391/announce
udp://shadowshq.yi.org:6969/announce
udp://p4p.arenabg.com:1337/announce
udp://tracker.grepler.com:6969/announce
udp://public.popcorn-tracker.org:6969/announce
Total Size: 7.95 GB
Files:
The Fate of the Furious (2017) 1080p BluRay x264 DTS 5.1 - Hon3y/The Fate of the Furious (2017) 1080p BluRay x264 DTS 5.1 - Hon3y.mkv - 7.95 GB
The Fate of the Furious (2017) 1080p BluRay x264 DTS 5.1 - Hon3y/Torrent Downloaded from HDSector.com.txt - 36 B

Description




The Fate of the Furious (2017) 1080p BluRay x264 DTS 5.1 - Hon3y


http://www.hdsector.com


Source BD50 @ CHD. Many Thanks !

Format : Matroska
Format version : Version 4 / Version 2
File size : 7.95 GiB
Duration : 2 h 15 min
Overall bit rate : 8 367 kb/s
Movie name : The Fate of the Furious (2017)- Hon3yHD


Video
ID : 1
Format : AVC
Format/Info : Advanced Video Codec
Format profile : [email protected]/* */
Format settings, CABAC : Yes
Format settings, ReFrames : 5 frames
Codec ID : V_MPEG4/ISO/AVC
Duration : 2 h 15 min
Bit rate : 6 856 kb/s
Width : 1 920 pixels
Height : 800 pixels
Display aspect ratio : 2.40:1
Frame rate mode : Constant
Frame rate : 23.976 (24000/1001) FPS


Audio
ID : 2
Format : DTS
Format/Info : Digital Theater Systems
Mode : 16
Format settings, Endianness : Big
Codec ID : A_DTS
Duration : 2 h 15 min
Bit rate mode : Constant
Bit rate : 1 509 kb/s
Channel(s) : 6 channels
Channel positions : Front: L C R, Side: L R, LFE
Sampling rate : 48.0 kHz
Frame rate : 93.750 FPS (512 spf)
Bit depth : 24 bits
Compression mode : Lossy
Stream size : 1.43 GiB (18%)
Language : English
Default : Yes
Forced : No

Text
ID : 3
Format : UTF-8
Codec ID : S_TEXT/UTF8
Codec ID/Info : UTF-8 Plain Text
Duration : 2 h 6 min
Bit rate : 50 b/s
Count of elements : 1517
Stream size : 46.5 KiB (0%)
Language : English
Default : Yes
Forced : No

Menu
00:00:00.000 : en:00:00:00.000
00:13:08.913 : en:00:13:08.913
00:20:30.771 : en:00:20:30.771
00:26:38.639 : en:00:26:38.639
00:32:26.778 : en:00:32:26.778
00:36:40.573 : en:00:36:40.573
00:43:35.613 : en:00:43:35.613
00:47:45.780 : en:00:47:45.780
00:56:00.732 : en:00:56:00.732
01:04:08.303 : en:01:04:08.303
01:09:08.061 : en:01:09:08.061
01:13:24.275 : en:01:13:24.275
01:21:25.714 : en:01:21:25.714
01:29:29.948 : en:01:29:29.948
01:35:12.457 : en:01:35:12.457
01:39:55.781 : en:01:39:55.781
01:45:00.711 : en:01:45:00.711
01:53:01.858 : en:01:53:01.858
02:01:51.262 : en:02:01:51.262
02:06:45.097 : en:02:06:45.097


http://www.hdsector.com



Comments: