Movies torrents - Other torrents

Ghost in the Shell (2017) 1080p HDRip Uncut 1Gb x264 English [Lov... torrent

Download Direct: Ghost in the Shell (2017) 1080p HDRip Uncut 1Gb x264 English [Lov... - No Client needed
(1) (0)
Download torrent: Ghost in the Shell (2017) 1080p HDRip Uncut 1Gb x264 English [Lov... torrent download
Torrent created: 06 Jul 2017 09:26:36
Torrent added: 07 Jul 2017 19:00:25 Report this torrent as fake!
Torrent's info hash: 559E53BDC13E4179F7C553E36A230D189487E738
Category: Movies / Other
Seeds: - Scraping... Last scraped ...
Leeches: -
Downloads: -
Announce(s):
Tracker S L DL
http://bigfoot1942.sektori.org:6969/announce---
http://tracker2.wasabii.com.tw:6969/announce---
http://tracker.mg64.net:6881/announce---
http://bt.artvid.ru:6969/announce---
http://open.acgtracker.com:1096/announce---
http://tracker.opentrackr.org/announce
http://announce.torrentsmd.com:6969/announce
http://tracker.trackerfix.com/announce
udp://tracker.openbittorrent.com:80/announce
udp://explodie.org:6969/announce
udp://mgtracker.org:6969/announce
udp://asnet.pw:2710/announce
udp://tracker.mgtracker.org:2710/announce
udp://tracker4.piratux.com:6969/announce
udp://tracker.trackerfix.com:80/announce
udp://tracker.pomf.se:80/announce
udp://torrent.gresille.org:80/announce
udp://tracker.x4w.co:6969/announce
udp://castradio.net:6969/announce
udp://p4p.arenabg.com:1337
udp://ipv4.tracker.harry.lu:80/announce
udp://inferno.demonoid.ooo:3389/announce
udp://tracker.sktorrent.net:6969/announce
udp://tracker.blackunicorn.xyz:6969/announce
udp://tracker.internetwarriors.net:1337/announce
udp://exodus.desync.com:6969/announce
udp://tracker.pirateparty.gr:6969/announce
udp://p4p.arenabg.ch:1337/announce
udp://glotorrents.pw:6969/announce
udp://eddie4.nl:6969/announce
udp://9.rarbg.me:2710/announce
udp://tracker.opentrackr.org:1337/announce
udp://tracker.zer0day.to:1337/announce
udp://9.rarbg.to:2710/announce
http://tracker.opentrackr.org:1337/announce
udp://tracker.leechers-paradise.org:6969/announce
udp://tracker.coppersurfer.tk:6969/announce
udp://tracker.cuntflaps.me:6969/announce
udp://shadowshq.yi.org:6969/announce
udp://tracker2.wasabii.com.tw:6969/announce
udp://9.rarbg.me:2740/announce
udp://p4p.arenabg.com:1337/announce
udp://tracker1.wasabii.com.tw:6969/announce
Total Size: 1.05 GB
Files:
Ghost in the Shell (2017) 1080p HDRip Uncut 1Gb x264 English [LoveHD]/To keep us going please read.txt - 823 B
Ghost in the Shell (2017) 1080p HDRip Uncut 1Gb x264 English [LoveHD]/Ghost.In.The.Shell.2017.1080p.HC.HDRip.mkv - 1.05 GB

Description




Ghost in the Shell (2017) 1080p HDRip Uncut 1Gb x264 English [LoveHD]



Plot:-
In the near future, Major is the first of her kind: A human saved from a terrible crash, who is cyber-enhanced to be a perfect soldier devoted to stopping the world's most dangerous criminals.
Director: Rupert Sanders
Writers: Shirow Masamune (based on the comic "The Ghost in the Shell" by), Jamie Moss (screenplay)
Stars: Scarlett Johansson, Pilou Asbæk, Takeshi Kitano
IMDB:-http://www.imdb.com/title/tt1219827/

Screenshots:- Click to Enlarge:-




Quote:

Format : Matroska
Format version : Version 4 / Version 2
File size : 1.05 GiB
Duration : 1 h 47 min
Overall bit rate : 1 399 kb/s
Movie name : LoveHD

Video
ID : 1
Format : AVC
Format/Info : Advanced Video Codec
Format profile : [email protected]/* */
Format settings, CABAC : Yes
Format settings, ReFrames : 2 frames
Codec ID : V_MPEG4/ISO/AVC
Duration : 1 h 47 min
Bit rate : 1 280 kb/s
Width : 1 920 pixels
Height : 1 080 pixels
Display aspect ratio : 16:9
Frame rate mode : Constant
Frame rate : 30.000 FPS
Color space : YUV
Chroma subsampling : 4:2:0
Bit depth : 8 bits
Scan type : Progressive
Bits/(Pixel*Frame) : 0.021
Stream size : 972 MiB (91%)
Title : LoveHD
Writing library : x264 core 148 r2643 5c65704

Audio
ID : 2
Format : AAC
Format/Info : Advanced Audio Codec
Format profile : LC
Codec ID : A_AAC
Duration : 1 h 47 min
Bit rate : 128 kb/s
Channel(s) : 2 channels
Channel positions : Front: L R
Sampling rate : 48.0 kHz
Frame rate : 46.875 FPS (1024 spf)
Compression mode : Lossy
Delay relative to video : -21 ms
Stream size : 97.7 MiB (9%)
Title : LoveHD
Language : English
Default : Yes
Forced : No





To keep us going Support us by donating Bitcoin: 1DzidrnvDgq95yDEqnsByYw4D5J2UH6jLZ


If you like my post, don't forget to say Thanks.


Comments: