Movies torrents - Other torrents

Sunny 2011 720p DC BRrip x265 HEVC 10bit PoOlLa torrent

Download Direct: Sunny 2011 720p DC BRrip x265 HEVC 10bit PoOlLa - No Client needed
(0) (0)
Download torrent: Sunny 2011 720p DC BRrip x265 HEVC 10bit PoOlLa torrent download
Torrent created: 06 Jul 2017 08:45:11
Torrent added: 07 Jul 2017 19:00:12 Report this torrent as fake!
Torrent's info hash: 088F7DF85DB3CD30B4528B2D28F3C576C8028D40
Category: Movies / Other
Seeds: - Scraping... Last scraped ...
Leeches: -
Downloads: -
Announce(s):
Tracker S L DL
http://bigfoot1942.sektori.org:6969/announce---
http://tracker2.wasabii.com.tw:6969/announce---
http://tracker.mg64.net:6881/announce---
http://bt.artvid.ru:6969/announce---
http://open.acgtracker.com:1096/announce---
http://tracker.opentrackr.org/announce
http://announce.torrentsmd.com:6969/announce
http://tracker.trackerfix.com/announce
udp://tracker.openbittorrent.com:80/announce
udp://explodie.org:6969/announce
udp://mgtracker.org:6969/announce
udp://asnet.pw:2710/announce
udp://tracker.mgtracker.org:2710/announce
udp://tracker4.piratux.com:6969/announce
udp://tracker.trackerfix.com:80/announce
udp://tracker.pomf.se:80/announce
udp://torrent.gresille.org:80/announce
udp://tracker.x4w.co:6969/announce
udp://castradio.net:6969/announce
udp://p4p.arenabg.com:1337
udp://ipv4.tracker.harry.lu:80/announce
udp://inferno.demonoid.ooo:3389/announce
udp://tracker.sktorrent.net:6969/announce
udp://tracker.blackunicorn.xyz:6969/announce
udp://tracker.internetwarriors.net:1337/announce
udp://exodus.desync.com:6969/announce
udp://tracker.pirateparty.gr:6969/announce
udp://p4p.arenabg.ch:1337/announce
udp://glotorrents.pw:6969/announce
udp://eddie4.nl:6969/announce
udp://9.rarbg.me:2710/announce
udp://tracker.opentrackr.org:1337/announce
udp://tracker.zer0day.to:1337/announce
udp://9.rarbg.to:2710/announce
http://tracker.opentrackr.org:1337/announce
udp://tracker.leechers-paradise.org:6969/announce
udp://tracker.coppersurfer.tk:6969/announce
http://tracker.ex.ua/announce
udp://9.rarbg.com:2710/announce
http://mgtracker.org:2710/announce
udp://zer0day.to:1337/announce
http://tracker1.wasabii.com.tw:6969/announce
udp://tracker.ilibr.org:6969/announce
Total Size: 439.74 MB
Files:
Sunny.2011.720p.DC.BRrip.x265.HEVC.10bit.PoOlLa.mkv - 439.74 MB

Description

JOIN TELEGRAM CHANNEL https://telegram.me/poolla

DONATE BTC : J1QBtqGZMGLXFuXy73e7qGYWCLp5mh1CW8G

use .torrent file instead of magnet link for faster download speed



Plot:

Seven girls become good friends in high school, then events pull them apart for 25 years. When one of the friends lies dying in a hospital, she wishes to see each of them one last time.

Director: Kang Hyeong-cheol

Click Here For Screenshot

IMDB , TRAILER

Language: Korean
Subtitles: English

MediaInfo:

[/size]
Format : Matroska
File size : 440 MiB
Duration : 2 h 15 min
Overall bit rate : 453 kb/s

Video


Format : HEVC
Format/Info : High Efficiency Video Coding
Duration : 2 h 15 min
Bit rate : 403 kb/s
Width : 1 280 pixels
Height : 544 pixels
Display aspect ratio : 2.35:1
Frame rate mode : Constant
Frame rate : 23.976 (24000/1001) FPS
Bit depth : 10 bits
Bits/(Pixel*Frame) : 0.024
Stream size : 391 MiB (89%)
Writing library : x265 2.4+68-011e09a0d4b2:[Windows][MSVC 1910][64 bit] 10bit

Audio


Format : Opus
Duration : 2 h 15 min
Bit rate : 48.0 kb/s
Channel(s) : 2 channels
Channel positions : Front: L R
Sampling rate : 48.0 kHz
Frame rate : 50.000 FPS (960 spf)
Delay relative to video : 31 ms
Stream size : 46.6 MiB (11%)
Language : Korean

Comments: