Movies torrents - Other torrents

Wazir.2016.LIMITED.1080p.BluRay.x264-Chakra torrent

Download Direct: Wazir.2016.LIMITED.1080p.BluRay.x264-Chakra - No Client needed
(0) (0)
Download torrent: Wazir.2016.LIMITED.1080p.BluRay.x264-Chakra torrent download
Torrent created: 06 Jul 2017 08:38:03
Torrent added: 07 Jul 2017 19:00:07 Report this torrent as fake!
Torrent's info hash: 56F16D53C3320AEB6C6B87F39E6531797C827A01
Category: Movies / Other
Seeds: - Scraping... Last scraped ...
Leeches: -
Downloads: -
Announce(s):
Tracker S L DL
http://bigfoot1942.sektori.org:6969/announce---
http://tracker2.wasabii.com.tw:6969/announce---
http://tracker.mg64.net:6881/announce---
http://bt.artvid.ru:6969/announce---
http://open.acgtracker.com:1096/announce---
http://tracker.opentrackr.org/announce
http://announce.torrentsmd.com:6969/announce
http://tracker.trackerfix.com/announce
udp://tracker.openbittorrent.com:80/announce
udp://explodie.org:6969/announce
udp://mgtracker.org:6969/announce
udp://asnet.pw:2710/announce
udp://tracker.mgtracker.org:2710/announce
udp://tracker4.piratux.com:6969/announce
udp://tracker.trackerfix.com:80/announce
udp://tracker.pomf.se:80/announce
udp://torrent.gresille.org:80/announce
udp://tracker.x4w.co:6969/announce
udp://castradio.net:6969/announce
udp://p4p.arenabg.com:1337
udp://ipv4.tracker.harry.lu:80/announce
udp://inferno.demonoid.ooo:3389/announce
udp://tracker.sktorrent.net:6969/announce
udp://tracker.blackunicorn.xyz:6969/announce
udp://tracker.internetwarriors.net:1337/announce
udp://exodus.desync.com:6969/announce
udp://tracker.pirateparty.gr:6969/announce
udp://p4p.arenabg.ch:1337/announce
udp://glotorrents.pw:6969/announce
udp://eddie4.nl:6969/announce
udp://9.rarbg.me:2710/announce
udp://tracker.opentrackr.org:1337/announce
udp://tracker.zer0day.to:1337/announce
udp://9.rarbg.to:2710/announce
http://tracker.opentrackr.org:1337/announce
udp://tracker.leechers-paradise.org:6969/announce
udp://tracker.coppersurfer.tk:6969/announce
udp://public.popcorn-tracker.org:6969/announce
udp://tracker.grepler.com:6969/announce
udp://p4p.arenabg.com:1337/announce
udp://shadowshq.yi.org:6969/announce
Total Size: 7.65 GB
Files:
Wazir.2016.LIMITED.1080p.BluRay.x264-Chakra/chakra-wazir.2016.limited.1080p.bluray.x264.mkv - 7.65 GB
Wazir.2016.LIMITED.1080p.BluRay.x264-Chakra/chakra-wazir.2016.limited.1080p.bluray.x264.nfo - 4.36 KB

Description

Wazir.2016.LIMITED.1080p.BluRay.x264-Chakra

ImDb: http://www.imdb.com/title/tt0315642



Complete name : chakra-wazir.2016.limited.1080p.bluray.x264.mkv
Format : Matroska
Format version : Version 4 / Version 2
File size : 7.65 GiB
Duration : 1 h 44 min
Overall bit rate : 10.5 Mb/s
Writing application : mkvmerge v13.0.0 ('The Juggler') 64bit
Writing library : libebml v1.3.4 + libmatroska v1.4.5

Video
ID : 1
Format : AVC
Format/Info : Advanced Video Codec
Format profile : [email protected]/* */
Format settings, CABAC : Yes
Format settings, ReFrames : 5 frames
Codec ID : V_MPEG4/ISO/AVC
Duration : 1 h 44 min
Bit rate : 9 883 kb/s
Width : 1 920 pixels
Height : 824 pixels
Display aspect ratio : 2.35:1
Frame rate mode : Constant
Frame rate : 24.000 FPS
Color space : YUV
Chroma subsampling : 4:2:0
Bit depth : 8 bits
Scan type : Progressive
Bits/(Pixel*Frame) : 0.260
Stream size : 7.03 GiB (92%)
Writing library : x264 core 152 r2851 ba24899
Encoding settings : cabac=1 / ref=5 / deblock=1:0:0 / analyse=0x3:0x113 / me=umh / subme=8 / psy=1 / psy_rd=1.00:0.00 / mixed_ref=1 / me_range=16 / chroma_me=1 / trellis=1 / 8x8dct=1 / cqm=0 / deadzone=21,11 / fast_pskip=1 / chroma_qp_offset=-2 / threads=12 / lookahead_threads=2 / sliced_threads=0 / nr=0 / decimate=1 / interlaced=0 / bluray_compat=0 / constrained_intra=0 / bframes=3 / b_pyramid=2 / b_adapt=1 / b_bias=0 / direct=3 / weightb=1 / open_gop=0 / weightp=2 / keyint=240 / keyint_min=24 / scenecut=40 / intra_refresh=0 / rc_lookahead=50 / rc=2pass / mbtree=1 / bitrate=9883 / ratetol=1.0 / qcomp=0.60 / qpmin=0 / qpmax=69 / qpstep=4 / cplxblur=20.0 / qblur=0.5 / ip_ratio=1.40 / aq=1:1.00
Language : Hindi
Default : Yes
Forced : No

Audio
ID : 2
Format : AC-3
Format/Info : Audio Coding 3
Format settings, Endianness : Big
Codec ID : A_AC3
Duration : 1 h 44 min
Bit rate mode : Constant
Bit rate : 640 kb/s
Channel(s) : 6 channels
Channel positions : Front: L C R, Side: L R, LFE
Sampling rate : 48.0 kHz
Frame rate : 31.250 FPS (1536 spf)
Bit depth : 16 bits
Compression mode : Lossy
Stream size : 477 MiB (6%)
Language : Hindi
Service kind : Complete Main
Default : Yes
Forced : No

Text
ID : 3
Format : UTF-8
Codec ID : S_TEXT/UTF8
Codec ID/Info : UTF-8 Plain Text
Language : English
Default : Yes
Forced : No

Menu
00:00:00.000 : hi:00:00:00.000
00:02:55.833 : hi:00:02:55.833
00:06:09.250 : hi:00:06:09.250
00:20:08.708 : hi:00:20:08.708
00:24:05.083 : hi:00:24:05.083
00:26:23.417 : hi:00:26:23.417
00:28:16.167 : hi:00:28:16.167
00:35:51.000 : hi:00:35:51.000
00:36:53.042 : hi:00:36:53.042
00:40:28.792 : hi:00:40:28.792
00:51:57.167 : hi:00:51:57.167
00:55:50.292 : hi:00:55:50.292
01:00:01.958 : hi:01:00:01.958
01:07:25.667 : hi:01:07:25.667
01:08:40.208 : hi:01:08:40.208
01:13:01.250 : hi:01:13:01.250
01:15:18.708 : hi:01:15:18.708
01:18:51.167 : hi:01:18:51.167
01:26:51.375 : hi:01:26:51.375
01:31:03.458 : hi:01:31:03.458
01:40:13.417 : hi:01:40:13.417






Click To View Screenshot

Click To View Screenshot

Click To View Screenshot

Comments: