Movies torrents - Other torrents

Training Day 2001 720p Esub BluRay Dual Audio English Hindi GOPI-... torrent

Download Direct: Training Day 2001 720p Esub BluRay Dual Audio English Hindi GOPI-... - No Client needed
(0) (0)
Download torrent: Training Day 2001 720p Esub BluRay Dual Audio English Hindi GOPI-... torrent download
Torrent created: 06 Jul 2017 06:32:09
Torrent added: 07 Jul 2017 18:59:06 Report this torrent as fake!
Torrent's info hash: 3F762F3453CFCF810E900558D136EBBA07293F0D
Category: Movies / Other
Seeds: - Scraping... Last scraped ...
Leeches: -
Downloads: -
Announce(s):
Tracker S L DL
http://bigfoot1942.sektori.org:6969/announce---
http://tracker2.wasabii.com.tw:6969/announce---
http://tracker.mg64.net:6881/announce---
http://bt.artvid.ru:6969/announce---
http://open.acgtracker.com:1096/announce---
http://tracker.opentrackr.org/announce
http://announce.torrentsmd.com:6969/announce
http://tracker.trackerfix.com/announce
udp://tracker.openbittorrent.com:80/announce
udp://explodie.org:6969/announce
udp://mgtracker.org:6969/announce
udp://asnet.pw:2710/announce
udp://tracker.mgtracker.org:2710/announce
udp://tracker4.piratux.com:6969/announce
udp://tracker.trackerfix.com:80/announce
udp://tracker.pomf.se:80/announce
udp://torrent.gresille.org:80/announce
udp://tracker.x4w.co:6969/announce
udp://castradio.net:6969/announce
udp://p4p.arenabg.com:1337
udp://ipv4.tracker.harry.lu:80/announce
udp://inferno.demonoid.ooo:3389/announce
udp://tracker.sktorrent.net:6969/announce
udp://tracker.blackunicorn.xyz:6969/announce
udp://tracker.internetwarriors.net:1337/announce
udp://exodus.desync.com:6969/announce
udp://tracker.pirateparty.gr:6969/announce
udp://p4p.arenabg.ch:1337/announce
udp://glotorrents.pw:6969/announce
udp://eddie4.nl:6969/announce
udp://9.rarbg.me:2710/announce
udp://tracker.opentrackr.org:1337/announce
udp://tracker.zer0day.to:1337/announce
udp://9.rarbg.to:2710/announce
http://tracker.opentrackr.org:1337/announce
udp://tracker.leechers-paradise.org:6969/announce
udp://tracker.coppersurfer.tk:6969/announce
udp://public.popcorn-tracker.org:6969/announce
udp://p4p.arenabg.com:1337/announce
udp://zer0day.to:1337/announce
Total Size: 893.56 MB
Files:
Training Day 2001 720p Esub BluRay Dual Audio English Hindi GOPI-JATT.mkv - 893.56 MB

Description

Video
Format                         : AVC
Codec ID                       : V_MPEG4/ISO/AVC
Duration                       : 2 h 2 min
Bit rate mode                  : Variable
Bit rate                       : 817 kb/s
Maximum bit rate               : 25.0 Mb/s
Width                          : 1 280 pixels
Height                         : 544 pixels
Display aspect ratio           : 2.35:1
Frame rate mode                : Constant
Frame rate                     : 23.976 (24000/1001) FPS
Stream size                    : 712 MiB (80%)
Writing library                : x264 core 120 r2120 0c7dab9

Audio #1
Format                         : AAC
Duration                       : 2 h 1 min
Bit rate                       : 109 kb/s
Channel(s)                     : 2 channels
Channel positions              : Front: L R
Sampling rate                  : 48.0 kHz
Frame rate                     : 46.875 FPS (1024 SPF)
Delay relative to video        : 15 s 0 ms
Stream size                    : 95.2 MiB (11%)
Language                       : Hindi


Audio #2
Format                         : AC-3
Duration                       : 2 h 2 min
Bit rate mode                  : Constant
Bit rate                       : 96.0 kb/s
Channel(s)                     : 6 channels
Channel positions              : Front: L C R, Side: L R, LFE
Sampling rate                  : 44.1 kHz
Frame rate                     : 28.711 FPS (1536 SPF)
Stream size                    : 83.8 MiB (9%)
Language                       : English

Text
Duration                       : 1 h 59 min
Bit rate                       : 68 b/s
Count of elements              : 2266
Stream size                    : 59.9 KiB (0%)
Language                       : English



Comments: