Movies torrents - Other torrents

Ghost.In.The.Shell.2017.720p.WEB-DL.H264.AC3-EVO torrent

Download Direct: Ghost.In.The.Shell.2017.720p.WEB-DL.H264.AC3-EVO - No Client needed
(0) (0)
Download torrent: Ghost.In.The.Shell.2017.720p.WEB-DL.H264.AC3-EVO torrent download
Torrent created: 06 Jul 2017 04:30:00
Torrent added: 07 Jul 2017 18:57:23 Report this torrent as fake!
Torrent's info hash: FEC8C5F44BA832EE332EE0A1210200425B46A770
Category: Movies / Other
Seeds: - Scraping... Last scraped ...
Leeches: -
Downloads: -
Announce(s):
Tracker S L DL
http://bigfoot1942.sektori.org:6969/announce---
http://tracker2.wasabii.com.tw:6969/announce---
http://tracker.mg64.net:6881/announce---
http://bt.artvid.ru:6969/announce---
http://open.acgtracker.com:1096/announce---
http://tracker.opentrackr.org/announce
http://announce.torrentsmd.com:6969/announce
http://tracker.trackerfix.com/announce
udp://tracker.openbittorrent.com:80/announce
udp://explodie.org:6969/announce
udp://mgtracker.org:6969/announce
udp://asnet.pw:2710/announce
udp://tracker.mgtracker.org:2710/announce
udp://tracker4.piratux.com:6969/announce
udp://tracker.trackerfix.com:80/announce
udp://tracker.pomf.se:80/announce
udp://torrent.gresille.org:80/announce
udp://tracker.x4w.co:6969/announce
udp://castradio.net:6969/announce
udp://p4p.arenabg.com:1337
udp://ipv4.tracker.harry.lu:80/announce
udp://inferno.demonoid.ooo:3389/announce
udp://tracker.sktorrent.net:6969/announce
udp://tracker.blackunicorn.xyz:6969/announce
udp://tracker.internetwarriors.net:1337/announce
udp://exodus.desync.com:6969/announce
udp://tracker.pirateparty.gr:6969/announce
udp://p4p.arenabg.ch:1337/announce
udp://glotorrents.pw:6969/announce
udp://eddie4.nl:6969/announce
udp://9.rarbg.me:2710/announce
udp://tracker.opentrackr.org:1337/announce
udp://tracker.zer0day.to:1337/announce
udp://9.rarbg.to:2710/announce
http://tracker.opentrackr.org:1337/announce
udp://tracker.leechers-paradise.org:6969/announce
udp://tracker.coppersurfer.tk:6969/announce
udp://public.popcorn-tracker.org:6969/announce
udp://tracker.grepler.com:6969/announce
udp://p4p.arenabg.com:1337/announce
udp://shadowshq.yi.org:6969/announce
Total Size: 3.32 GB
Files:
Ghost.In.The.Shell.2017.720p.WEB-DL.H264.AC3-EVO/Ghost.In.The.Shell.2017.720p.WEB-DL.H264.AC3-EVO.mkv - 3.32 GB
Ghost.In.The.Shell.2017.720p.WEB-DL.H264.AC3-EVO/Ghost.In.The.Shell.2017.720p.WEB-DL.H264.AC3-EVO.nfo - 735 B

Description

Ghost.In.The.Shell.2017.720p.WEB-DL.H264.AC3-EVO

ImDb: http://www.imdb.com/title/tt1219827



Complete name : Ghost.In.The.Shell.2017.720p.WEB-DL.H264.AC3-EVO.mkv
Format : Matroska
Format version : Version 4 / Version 2
File size : 3.32 GiB
Duration : 1 h 47 min
Overall bit rate : 4 436 kb/s
Movie name : EVO
Encoded date : UTC 2017-07-05 23:49:02
Writing application : mkvmerge v6.7.0 ('Back to the Ground') 64bit built on Jan 8 2014 15:10:52
Writing library : libebml v1.3.0 + libmatroska v1.4.1

Video
ID : 1
Format : AVC
Format/Info : Advanced Video Codec
Format profile : [email protected]/* */
Format settings, CABAC : No
Format settings, ReFrames : 2 frames
Codec ID : V_MPEG4/ISO/AVC
Duration : 1 h 47 min
Bit rate : 3 964 kb/s
Width : 1 280 pixels
Height : 720 pixels
Display aspect ratio : 16:9
Frame rate mode : Constant
Frame rate : 24.000 FPS
Color space : YUV
Chroma subsampling : 4:2:0
Bit depth : 8 bits
Scan type : Progressive
Bits/(Pixel*Frame) : 0.179
Stream size : 2.97 GiB (89%)
Language : English
Default : Yes
Forced : No
Color range : Limited
Color primaries : BT.709
Transfer characteristics : BT.709
Matrix coefficients : BT.709

Audio
ID : 2
Format : AC-3
Format/Info : Audio Coding 3
Format settings, Endianness : Big
Codec ID : A_AC3
Duration : 1 h 47 min
Bit rate mode : Constant
Bit rate : 384 kb/s
Channel(s) : 6 channels
Channel positions : Front: L C R, Side: L R, LFE
Sampling rate : 48.0 kHz
Frame rate : 31.250 FPS (1536 spf)
Bit depth : 16 bits
Compression mode : Lossy
Stream size : 294 MiB (9%)
Language : English
Service kind : Complete Main
Default : Yes
Forced : No

Menu
00:00:00.000 : en:1
00:08:08.000 : en:2
00:14:38.000 : en:3
00:21:24.000 : en:4
00:28:00.000 : en:5
00:34:10.000 : en:6
00:39:24.000 : en:7
00:43:54.000 : en:8
00:51:45.000 : en:9
00:55:13.000 : en:10
01:01:02.000 : en:11
01:07:43.000 : en:12
01:14:31.000 : en:13
01:20:26.000 : en:14
01:27:40.000 : en:15
01:33:34.000 : en:16
01:37:53.000 : en:17






Click To View Screenshot

Click To View Screenshot

Click To View Screenshot

Comments: