Movies torrents - Other torrents

What.Lies.Beneath.2000.720p.BluRay.X264-AMIABLE torrent

Download Direct: What.Lies.Beneath.2000.720p.BluRay.X264-AMIABLE - No Client needed
(0) (0)
Download torrent: What.Lies.Beneath.2000.720p.BluRay.X264-AMIABLE torrent download
Torrent created: 06 Jul 2017 03:27:29
Torrent added: 07 Jul 2017 18:56:36 Report this torrent as fake!
Torrent's info hash: 7C0E421AD43A94C483D0E77740CEEEC6BB433D41
Category: Movies / Other
Seeds: - Scraping... Last scraped ...
Leeches: -
Downloads: -
Announce(s):
Tracker S L DL
http://bigfoot1942.sektori.org:6969/announce---
http://tracker2.wasabii.com.tw:6969/announce---
http://tracker.mg64.net:6881/announce---
http://bt.artvid.ru:6969/announce---
http://open.acgtracker.com:1096/announce---
http://tracker.opentrackr.org/announce
http://announce.torrentsmd.com:6969/announce
http://tracker.trackerfix.com/announce
udp://tracker.openbittorrent.com:80/announce
udp://explodie.org:6969/announce
udp://mgtracker.org:6969/announce
udp://asnet.pw:2710/announce
udp://tracker.mgtracker.org:2710/announce
udp://tracker4.piratux.com:6969/announce
udp://tracker.trackerfix.com:80/announce
udp://tracker.pomf.se:80/announce
udp://torrent.gresille.org:80/announce
udp://tracker.x4w.co:6969/announce
udp://castradio.net:6969/announce
udp://p4p.arenabg.com:1337
udp://ipv4.tracker.harry.lu:80/announce
udp://inferno.demonoid.ooo:3389/announce
udp://tracker.sktorrent.net:6969/announce
udp://tracker.blackunicorn.xyz:6969/announce
udp://tracker.internetwarriors.net:1337/announce
udp://exodus.desync.com:6969/announce
udp://tracker.pirateparty.gr:6969/announce
udp://p4p.arenabg.ch:1337/announce
udp://glotorrents.pw:6969/announce
udp://eddie4.nl:6969/announce
udp://9.rarbg.me:2710/announce
udp://tracker.opentrackr.org:1337/announce
udp://tracker.zer0day.to:1337/announce
udp://9.rarbg.to:2710/announce
http://tracker.opentrackr.org:1337/announce
udp://tracker.leechers-paradise.org:6969/announce
udp://tracker.coppersurfer.tk:6969/announce
udp://public.popcorn-tracker.org:6969/announce
udp://tracker.grepler.com:6969/announce
udp://p4p.arenabg.com:1337/announce
udp://shadowshq.yi.org:6969/announce
Total Size: 6.56 GB
Files:
What.Lies.Beneath.2000.720p.BluRay.X264-AMIABLE/What.Lies.Beneath.2000.720p.BluRay.X264-AMIABLE.mkv - 6.56 GB
What.Lies.Beneath.2000.720p.BluRay.X264-AMIABLE/what.lies.beneath.2000.720p.bluray.x264-amiable.nfo - 1.45 KB

Description

What.Lies.Beneath.2000.720p.BluRay.X264-AMIABLE

ImDb: http://www.imdb.com/title/tt0161081



Complete name : What.Lies.Beneath.2000.720p.BluRay.X264-AMIABLE.mkv
Format : Matroska
Format version : Version 4 / Version 2
File size : 6.56 GiB
Duration : 2 h 10 min
Overall bit rate : 7 221 kb/s
Encoded date : UTC 2010-02-22 21:41:29
Writing application : no_variable_data
Writing library : no_variable_data

Video
ID : 1
Format : AVC
Format/Info : Advanced Video Codec
Format profile : [email protected]/* */
Format settings, CABAC : Yes
Format settings, ReFrames : 5 frames
Codec ID : V_MPEG4/ISO/AVC
Duration : 2 h 10 min
Bit rate : 5 710 kb/s
Width : 1 280 pixels
Height : 528 pixels
Display aspect ratio : 2.40:1
Frame rate mode : Constant
Frame rate : 23.976 (24000/1001) FPS
Color space : YUV
Chroma subsampling : 4:2:0
Bit depth : 8 bits
Scan type : Progressive
Bits/(Pixel*Frame) : 0.352
Stream size : 5.06 GiB (77%)
Writing library : x264 core 152 r2851 ba24899
Encoding settings : cabac=1 / ref=5 / deblock=1:-3:-3 / analyse=0x3:0x113 / me=umh / subme=8 / psy=1 / psy_rd=1.10:0.00 / mixed_ref=1 / me_range=24 / chroma_me=1 / trellis=2 / 8x8dct=1 / cqm=0 / deadzone=21,11 / fast_pskip=1 / chroma_qp_offset=-2 / threads=16 / lookahead_threads=2 / sliced_threads=0 / nr=0 / decimate=1 / interlaced=0 / bluray_compat=0 / constrained_intra=0 / bframes=3 / b_pyramid=2 / b_adapt=2 / b_bias=0 / direct=3 / weightb=1 / open_gop=0 / weightp=2 / keyint=240 / keyint_min=24 / scenecut=40 / intra_refresh=0 / rc_lookahead=50 / rc=2pass / mbtree=1 / bitrate=5710 / ratetol=1.0 / qcomp=0.60 / qpmin=0 / qpmax=69 / qpstep=4 / cplxblur=20.0 / qblur=0.5 / ip_ratio=1.40 / aq=3:0.75
Default : Yes
Forced : No
Statistics Tags Issue : no_variable_data 1970-01-01 00:00:00 / no_variable_data 2010-02-22 21:41:29
FromStats_BitRate : 5709506
FromStats_Duration : 02:09:59.792000000
FromStats_FrameCount : 187008
FromStats_StreamSize : 5566619916

Audio
ID : 2
Format : DTS
Format/Info : Digital Theater Systems
Mode : 16
Format settings, Endianness : Big
Codec ID : A_DTS
Duration : 2 h 10 min
Bit rate mode : Constant
Bit rate : 1 509 kb/s
Channel(s) : 6 channels
Channel positions : Front: L C R, Side: L R, LFE
Sampling rate : 48.0 kHz
Frame rate : 93.750 FPS (512 spf)
Bit depth : 24 bits
Compression mode : Lossy
Stream size : 1.37 GiB (21%)
Language : English
Default : Yes
Forced : No
Statistics Tags Issue : no_variable_data 1970-01-01 00:00:00 / no_variable_data 2010-02-22 21:41:29
FromStats_BitRate : 1508999
FromStats_Duration : 02:10:00.022000000
FromStats_FrameCount : 731252
FromStats_StreamSize : 1471279024

Text
ID : 3
Format : UTF-8
Codec ID : S_TEXT/UTF8
Codec ID/Info : UTF-8 Plain Text
Language : English
Default : No
Forced : No
Statistics Tags Issue : no_variable_data 1970-01-01 00:00:00 / no_variable_data 2010-02-22 21:41:29
FromStats_BitRate : 30
FromStats_Duration : 02:06:46.391000000
FromStats_FrameCount : 1032
FromStats_StreamSize : 28735

Menu
00:00:00.000 : en:00:00:00.000
00:16:12.959 : en:00:16:12.959
00:30:59.834 : en:00:30:59.834
00:43:50.625 : en:00:43:50.625
00:59:35.542 : en:00:59:35.542
01:16:48.583 : en:01:16:48.583
01:31:02.458 : en:01:31:02.458
01:51:19.667 : en:01:51:19.667
02:03:15.375 : en:02:03:15.375






Click To View Screenshot

Click To View Screenshot

Click To View Screenshot

Comments: