Movies torrents - Other torrents

Platoon 1986 (1080p Bluray x265 HEVC 10bit AAC 5.1 Tigole) [UTR] torrent

Download Direct: Platoon 1986 (1080p Bluray x265 HEVC 10bit AAC 5.1 Tigole) [UTR] - No Client needed
(0) (0)
Download torrent: Platoon 1986 (1080p Bluray x265 HEVC 10bit AAC 5.1 Tigole) [UTR] torrent download
Torrent created: 04 Jul 2017 03:10:23
Torrent added: 07 Jul 2017 18:56:00 Report this torrent as fake!
Torrent's info hash: 9E911674FC537C18B98D5A2699149F224AB3F29E
Category: Movies / Other
Seeds: - Scraping... Last scraped ...
Leeches: -
Downloads: -
Announce(s):
Total Size: 4.52 GB
Files:
Platoon 1986 (1080p Bluray x265 HEVC 10bit AAC 5.1 Tigole)/Featurettes/Caputo & the 7th Fleet.mkv - 3.09 MB
Platoon 1986 (1080p Bluray x265 HEVC 10bit AAC 5.1 Tigole)/Featurettes/Deleted & Extended Scenes.mkv - 59.25 MB
Platoon 1986 (1080p Bluray x265 HEVC 10bit AAC 5.1 Tigole)/Featurettes/Dye Training Method.mkv - 7 MB
Platoon 1986 (1080p Bluray x265 HEVC 10bit AAC 5.1 Tigole)/Featurettes/Flashback to Platoon.mkv - 189.1 MB
Platoon 1986 (1080p Bluray x265 HEVC 10bit AAC 5.1 Tigole)/Featurettes/Gordon Gekko.mkv - 4.2 MB
Platoon 1986 (1080p Bluray x265 HEVC 10bit AAC 5.1 Tigole)/Featurettes/One War, Many Stories.mkv - 87.55 MB
Platoon 1986 (1080p Bluray x265 HEVC 10bit AAC 5.1 Tigole)/Featurettes/Preparing for 'Nam.mkv - 21.07 MB
Platoon 1986 (1080p Bluray x265 HEVC 10bit AAC 5.1 Tigole)/Featurettes/TV Spot - Action.mkv - 1.61 MB
Platoon 1986 (1080p Bluray x265 HEVC 10bit AAC 5.1 Tigole)/Featurettes/TV Spot - Critical Acclaim.mkv - 2.46 MB
Platoon 1986 (1080p Bluray x265 HEVC 10bit AAC 5.1 Tigole)/Featurettes/TV Spot - The Director.mkv - 1.94 MB
Platoon 1986 (1080p Bluray x265 HEVC 10bit AAC 5.1 Tigole)/Featurettes/Trailer.mkv - 19.33 MB
Platoon 1986 (1080p Bluray x265 HEVC 10bit AAC 5.1 Tigole)/Platoon 1986 (1080p x265 10bit Tigole).mkv - 4.13 GB

Description



Platoon 1986 in 1080p, encoded with x265 in HEVC and AAC 5.1 English, with subtitles!
Encoded using the time consuming 2 pass, 10 bit color at 4250 kbps, from a Blu-ray source, for the highest quality possible.



Media Information

Code:
General
Format : Matroska
Format version : Version 4 / Version 2
File size : 4.13 GiB
Duration : 1 h 59 min
Overall bit rate : 4 939 kb/s
Movie name : Platoon
Encoded date : UTC 2017-06-23 01:15:21
Writing application : mkvmerge v12.0.0 ('Trust / Lust') 64bit
Writing library : libebml v1.3.4 + libmatroska v1.4.5

Video
ID : 1
Format : HEVC
Format/Info : High Efficiency Video Coding
Format profile : Main [email protected]/* */@Main
Codec ID : V_MPEGH/ISO/HEVC
Duration : 1 h 59 min
Bit rate : 4 249 kb/s
Width : 1 920 pixels
Height : 1 040 pixels
Display aspect ratio : 1.85:1
Frame rate mode : Constant
Frame rate : 23.976 (24000/1001) FPS
Color space : YUV
Chroma subsampling : 4:2:0
Bit depth : 10 bits
Bits/(Pixel*Frame) : 0.089
Stream size : 3.56 GiB (86%)
Writing library : x265 2.4+61-28bbc349d170:[Windows][GCC 6.3.0][64 bit] 10bit
Encoding settings : cpuid=1173503 / frame-threads=3 / numa-pools=8 / wpp / no-pmode / no-pme / no-psnr / no-ssim / log-level=2 / input-csp=1 / input-res=1920x1040 / interlace=0 / total-frames=172381 / level-idc=0 / high-tier=1 / uhd-bd=0 / ref=4 / no-allow-non-conformance / no-repeat-headers / annexb / no-aud / no-hrd / info / hash=0 / no-temporal-layers / open-gop / min-keyint=23 / keyint=250 / bframes=4 / b-adapt=2 / b-pyramid / bframe-bias=0 / rc-lookahead=25 / lookahead-slices=4 / scenecut=40 / no-intra-refresh / ctu=64 / min-cu-size=8 / rect / no-amp / max-tu-size=32 / tu-inter-depth=1 / tu-intra-depth=1 / limit-tu=0 / rdoq-level=2 / dynamic-rd=0.00 / no-ssim-rd / signhide / no-tskip / nr-intra=0 / nr-inter=0 / no-constrained-intra / strong-intra-smoothing / max-merge=3 / limit-refs=3 / limit-modes / me=3 / subme=3 / merange=57 / temporal-mvp / weightp / no-weightb / no-analyze-src-pics / deblock=0:0 / sao / no-sao-non-deblock / rd=4 / no-early-skip / rskip / no-fast-intra / no-tskip-fast / no-cu-lossless / no-b-intra / rdpenalty=0 / psy-rd=2.00 / psy-rdoq=1.00 / no-rd-refine / analysis-mode=0 / no-lossless / cbqpoffs=0 / crqpoffs=0 / rc=abr / bitrate=4250 / qcomp=0.60 / qpstep=4 / stats-write=0 / stats-read=2 / cplxblur=20.0 / qblur=0.5 / ipratio=1.40 / pbratio=1.30 / aq-mode=2 / aq-strength=1.00 / cutree / zone-count=0 / no-strict-cbr / qg-size=32 / no-rc-grain / qpmax=69 / qpmin=0 / sar=0 / overscan=0 / videoformat=5 / range=0 / colorprim=2 / transfer=2 / colormatrix=2 / chromaloc=0 / display-window=0 / max-cll=0,0 / min-luma=0 / max-luma=1023 / log2-max-poc-lsb=8 / vui-timing-info / vui-hrd-info / slices=1 / opt-qp-pps / opt-ref-list-length-pps / no-multi-pass-opt-rps / scenecut-bias=0.05 / no-opt-cu-delta-qp / no-aq-motion / no-hdr / no-hdr-opt / no-dhdr10-opt / refine-level=5 / scale-factor=0 / refine-intra=0 / refine-inter=0 / refine-mv=0 / no-limit-sao / ctu-info=0
Default : Yes
Forced : No

Audio #1
ID : 2
Format : AAC
Format/Info : Advanced Audio Codec
Format profile : LC
Codec ID : A_AAC
Duration : 1 h 59 min
Bit rate : 419 kb/s
Channel(s) : 6 channels
Channel positions : Front: L C R, Side: L R, LFE
Sampling rate : 48.0 kHz
Frame rate : 46.875 FPS (1024 spf)
Compression mode : Lossy
Delay relative to video : 20 ms
Stream size : 359 MiB (8%)
Language : English
Default : Yes
Forced : No

Audio #2
ID : 3
Format : AAC
Format/Info : Advanced Audio Codec
Format profile : HE-AAC / LC
Codec ID : A_AAC
Duration : 1 h 59 min
Bit rate : 64.7 kb/s
Channel(s) : 2 channels
Channel positions : Front: L R
Sampling rate : 48.0 kHz / 24.0 kHz
Frame rate : 23.438 FPS (1024 spf)
Compression mode : Lossy
Delay relative to video : 40 ms
Stream size : 55.4 MiB (1%)
Title : Commentary 1
Language : English
Default : No
Forced : No

Audio #3
ID : 4
Format : AAC
Format/Info : Advanced Audio Codec
Format profile : HE-AAC / LC
Codec ID : A_AAC
Duration : 1 h 59 min
Bit rate : 66.2 kb/s
Channel(s) : 2 channels
Channel positions : Front: L R
Sampling rate : 48.0 kHz / 24.0 kHz
Frame rate : 23.438 FPS (1024 spf)
Compression mode : Lossy
Delay relative to video : 40 ms
Stream size : 55.6 MiB (1%)
Title : Commentary 2
Language : English
Default : No
Forced : No

Text #1
ID : 5
Format : VobSub
Muxing mode : zlib
Codec ID : S_VOBSUB
Codec ID/Info : Picture based subtitle format used on DVDs
Duration : 1 h 57 min
Bit rate : 6 349 b/s
Count of elements : 1442
Stream size : 5.36 MiB (0%)
Language : English
Default : No
Forced : No

Text #2
ID : 6
Format : VobSub
Muxing mode : zlib
Codec ID : S_VOBSUB
Codec ID/Info : Picture based subtitle format used on DVDs
Duration : 1 h 59 min
Bit rate : 11.8 kb/s
Count of elements : 2073
Stream size : 10.1 MiB (0%)
Title : Commentary 1
Language : English
Default : No
Forced : No

Text #3
ID : 7
Format : VobSub
Muxing mode : zlib
Codec ID : S_VOBSUB
Codec ID/Info : Picture based subtitle format used on DVDs
Duration : 1 h 59 min
Bit rate : 3 743 b/s
Count of elements : 1269
Stream size : 3.19 MiB (0%)
Language : Chinese
Default : No
Forced : No

Text #4
ID : 8
Format : VobSub
Muxing mode : zlib
Codec ID : S_VOBSUB
Codec ID/Info : Picture based subtitle format used on DVDs
Duration : 1 h 59 min
Bit rate : 4 708 b/s
Count of elements : 961
Stream size : 4.01 MiB (0%)
Language : Czech
Default : No
Forced : No

Text #5
ID : 9
Format : VobSub
Muxing mode : zlib
Codec ID : S_VOBSUB
Codec ID/Info : Picture based subtitle format used on DVDs
Duration : 1 h 59 min
Bit rate : 5 297 b/s
Count of elements : 1267
Stream size : 4.51 MiB (0%)
Language : Danish
Default : No
Forced : No

Text #6
ID : 10
Format : VobSub
Muxing mode : zlib
Codec ID : S_VOBSUB
Codec ID/Info : Picture based subtitle format used on DVDs
Duration : 1 h 59 min
Bit rate : 4 840 b/s
Count of elements : 1268
Stream size : 4.12 MiB (0%)
Language : Dutch
Default : No
Forced : No

Text #7
ID : 11
Format : VobSub
Muxing mode : zlib
Codec ID : S_VOBSUB
Codec ID/Info : Picture based subtitle format used on DVDs
Duration : 1 h 59 min
Bit rate : 4 684 b/s
Count of elements : 1268
Stream size : 3.99 MiB (0%)
Language : Finnish
Default : No
Forced : No

Text #8
ID : 12
Format : VobSub
Muxing mode : zlib
Codec ID : S_VOBSUB
Codec ID/Info : Picture based subtitle format used on DVDs
Duration : 1 h 59 min
Bit rate : 5 253 b/s
Count of elements : 1268
Stream size : 4.48 MiB (0%)
Language : French
Default : No
Forced : No

Text #9
ID : 13
Format : VobSub
Muxing mode : zlib
Codec ID : S_VOBSUB
Codec ID/Info : Picture based subtitle format used on DVDs
Duration : 1 h 59 min
Bit rate : 8 602 b/s
Count of elements : 1421
Stream size : 7.34 MiB (0%)
Title : Commentary 1
Language : French
Default : No
Forced : No

Text #10
ID : 14
Format : VobSub
Muxing mode : zlib
Codec ID : S_VOBSUB
Codec ID/Info : Picture based subtitle format used on DVDs
Duration : 1 h 59 min
Bit rate : 5 838 b/s
Count of elements : 1267
Stream size : 4.97 MiB (0%)
Language : German
Default : No
Forced : No

Text #11
ID : 15
Format : VobSub
Muxing mode : zlib
Codec ID : S_VOBSUB
Codec ID/Info : Picture based subtitle format used on DVDs
Duration : 1 h 59 min
Bit rate : 16 b/s
Count of elements : 3
Stream size : 14.2 KiB (0%)
Title : Forced
Language : German
Default : No
Forced : No

Text #12
ID : 16
Format : VobSub
Muxing mode : zlib
Codec ID : S_VOBSUB
Codec ID/Info : Picture based subtitle format used on DVDs
Duration : 1 h 59 min
Bit rate : 8 739 b/s
Count of elements : 1418
Stream size : 7.45 MiB (0%)
Title : Commentary 1
Language : German
Default : No
Forced : No

Text #13
ID : 17
Format : VobSub
Muxing mode : zlib
Codec ID : S_VOBSUB
Codec ID/Info : Picture based subtitle format used on DVDs
Duration : 1 h 59 min
Bit rate : 4 854 b/s
Count of elements : 962
Stream size : 4.14 MiB (0%)
Language : Greek
Default : No
Forced : No

Text #14
ID : 18
Format : VobSub
Muxing mode : zlib
Codec ID : S_VOBSUB
Codec ID/Info : Picture based subtitle format used on DVDs
Duration : 1 h 59 min
Bit rate : 4 731 b/s
Count of elements : 962
Stream size : 4.03 MiB (0%)
Language : Hungarian
Default : No
Forced : No

Text #15
ID : 19
Format : VobSub
Muxing mode : zlib
Codec ID : S_VOBSUB
Codec ID/Info : Picture based subtitle format used on DVDs
Duration : 1 h 59 min
Bit rate : 5 164 b/s
Count of elements : 1267
Stream size : 4.40 MiB (0%)
Language : Italian
Default : No
Forced : No

Text #16
ID : 20
Format : VobSub
Muxing mode : zlib
Codec ID : S_VOBSUB
Codec ID/Info : Picture based subtitle format used on DVDs
Duration : 1 h 59 min
Bit rate : 8 416 b/s
Count of elements : 1418
Stream size : 7.18 MiB (0%)
Title : Commentary 1
Language : Italian
Default : No
Forced : No

Text #17
ID : 21
Format : VobSub
Muxing mode : zlib
Codec ID : S_VOBSUB
Codec ID/Info : Picture based subtitle format used on DVDs
Duration : 1 h 55 min
Bit rate : 2 975 b/s
Count of elements : 906
Stream size : 2.45 MiB (0%)
Language : Japanese
Default : No
Forced : No

Text #18
ID : 22
Format : VobSub
Muxing mode : zlib
Codec ID : S_VOBSUB
Codec ID/Info : Picture based subtitle format used on DVDs
Duration : 1 h 59 min
Bit rate : 3 231 b/s
Count of elements : 1270
Stream size : 2.75 MiB (0%)
Language : Korean
Default : No
Forced : No

Text #19
ID : 23
Format : VobSub
Muxing mode : zlib
Codec ID : S_VOBSUB
Codec ID/Info : Picture based subtitle format used on DVDs
Duration : 1 h 59 min
Bit rate : 5 133 b/s
Count of elements : 1268
Stream size : 4.37 MiB (0%)
Language : Norwegian Bokmal
Default : No
Forced : No

Text #20
ID : 24
Format : VobSub
Muxing mode : zlib
Codec ID : S_VOBSUB
Codec ID/Info : Picture based subtitle format used on DVDs
Duration : 1 h 59 min
Bit rate : 4 997 b/s
Count of elements : 962
Stream size : 4.26 MiB (0%)
Language : Polish
Default : No
Forced : No

Text #21
ID : 25
Format : VobSub
Muxing mode : zlib
Codec ID : S_VOBSUB
Codec ID/Info : Picture based subtitle format used on DVDs
Duration : 1 h 59 min
Bit rate : 5 057 b/s
Count of elements : 961
Stream size : 4.31 MiB (0%)
Language : Portuguese
Default : No
Forced : No

Text #22
ID : 26
Format : VobSub
Muxing mode : zlib
Codec ID : S_VOBSUB
Codec ID/Info : Picture based subtitle format used on DVDs
Duration : 1 h 59 min
Bit rate : 4 951 b/s
Count of elements : 1078
Stream size : 4.22 MiB (0%)
Language : Russian
Default : No
Forced : No

Text #23
ID : 27
Format : VobSub
Muxing mode : zlib
Codec ID : S_VOBSUB
Codec ID/Info : Picture based subtitle format used on DVDs
Duration : 1 h 59 min
Bit rate : 5 400 b/s
Count of elements : 1267
Stream size : 4.60 MiB (0%)
Language : Spanish
Default : No
Forced : No

Text #24
ID : 28
Format : VobSub
Muxing mode : zlib
Codec ID : S_VOBSUB
Codec ID/Info : Picture based subtitle format used on DVDs
Duration : 1 h 59 min
Bit rate : 4 695 b/s
Count of elements : 1268
Stream size : 4.00 MiB (0%)
Language : Swedish
Default : No
Forced : No

Text #25
ID : 29
Format : VobSub
Muxing mode : zlib
Codec ID : S_VOBSUB
Codec ID/Info : Picture based subtitle format used on DVDs
Duration : 1 h 59 min
Bit rate : 3 684 b/s
Count of elements : 1081
Stream size : 3.14 MiB (0%)
Language : Thai
Default : No
Forced : No

Text #26
ID : 30
Format : VobSub
Muxing mode : zlib
Codec ID : S_VOBSUB
Codec ID/Info : Picture based subtitle format used on DVDs
Duration : 1 h 59 min
Bit rate : 4 628 b/s
Count of elements : 961
Stream size : 3.94 MiB (0%)
Language : Turkish
Default : No
Forced : No

Menu
00:00:00.000 : en:Chapter 01
00:02:57.135 : en:Chapter 02
00:05:26.534 : en:Chapter 03
00:08:14.535 : en:Chapter 04
00:11:28.479 : en:Chapter 05
00:13:13.667 : en:Chapter 06
00:18:43.122 : en:Chapter 07
00:22:44.863 : en:Chapter 08
00:26:26.001 : en:Chapter 09
00:29:59.422 : en:Chapter 10
00:32:18.895 : en:Chapter 11
00:36:30.730 : en:Chapter 12
00:43:07.459 : en:Chapter 13
00:45:09.415 : en:Chapter 14
00:50:32.904 : en:Chapter 15
00:55:49.554 : en:Chapter 16
00:58:56.157 : en:Chapter 17
01:01:50.581 : en:Chapter 18
01:03:04.864 : en:Chapter 19
01:04:45.381 : en:Chapter 20
01:11:02.549 : en:Chapter 21
01:15:26.772 : en:Chapter 22
01:16:48.437 : en:Chapter 23
01:21:07.279 : en:Chapter 24
01:26:42.322 : en:Chapter 25
01:29:21.022 : en:Chapter 26
01:32:25.498 : en:Chapter 27
01:37:21.794 : en:Chapter 28
01:43:40.130 : en:Chapter 29
01:46:49.444 : en:Chapter 30
01:50:16.651 : en:Chapter 31
01:55:35.011 : en:Chapter 32


Source Information

Code:
Complete name : Platoon_t05.mkv
File size : 30.4 GiB
Duration : 1 h 59 min
Overall bit rate mode : Variable
Overall bit rate : 36.3 Mb/s


Comments: