Movies torrents - Other torrents

Basic Instinct 2 2006 Unrated (1080p Bluray x265 HEVC 10bit AAC 5... torrent

Download Direct: Basic Instinct 2 2006 Unrated (1080p Bluray x265 HEVC 10bit AAC 5... - No Client needed
(0) (0)
Download torrent: Basic Instinct 2 2006 Unrated (1080p Bluray x265 HEVC 10bit AAC 5... torrent download
Torrent created: 22 Jun 2017 00:26:41
Torrent added: 07 Jul 2017 18:56:00 Report this torrent as fake!
Torrent's info hash: ED0A18D10F9485D696003A39D90969D49F6801F1
Category: Movies / Other
Seeds: - Scraping... Last scraped ...
Leeches: -
Downloads: -
Announce(s):
Tracker S L DL
http://bigfoot1942.sektori.org:6969/announce---
http://tracker2.wasabii.com.tw:6969/announce---
http://tracker.mg64.net:6881/announce---
http://bt.artvid.ru:6969/announce---
http://open.acgtracker.com:1096/announce---
http://tracker.opentrackr.org/announce
http://announce.torrentsmd.com:6969/announce
http://tracker.trackerfix.com/announce
udp://tracker.openbittorrent.com:80/announce
udp://explodie.org:6969/announce
udp://mgtracker.org:6969/announce
udp://asnet.pw:2710/announce
udp://tracker.mgtracker.org:2710/announce
udp://tracker4.piratux.com:6969/announce
udp://tracker.trackerfix.com:80/announce
udp://tracker.pomf.se:80/announce
udp://torrent.gresille.org:80/announce
udp://tracker.x4w.co:6969/announce
udp://castradio.net:6969/announce
udp://p4p.arenabg.com:1337
udp://ipv4.tracker.harry.lu:80/announce
udp://inferno.demonoid.ooo:3389/announce
udp://tracker.sktorrent.net:6969/announce
udp://tracker.blackunicorn.xyz:6969/announce
udp://tracker.internetwarriors.net:1337/announce
udp://exodus.desync.com:6969/announce
udp://tracker.pirateparty.gr:6969/announce
udp://p4p.arenabg.ch:1337/announce
udp://glotorrents.pw:6969/announce
udp://eddie4.nl:6969/announce
udp://9.rarbg.me:2710/announce
udp://tracker.opentrackr.org:1337/announce
udp://tracker.zer0day.to:1337/announce
udp://9.rarbg.to:2710/announce
http://tracker.opentrackr.org:1337/announce
udp://tracker.leechers-paradise.org:6969/announce
udp://tracker.coppersurfer.tk:6969/announce
udp://tracker.torrent.eu.org:451/announce
Total Size: 3.08 GB
Files:
Basic Instinct 2 2006 Unrated (1080p Bluray x265 HEVC 10bit AAC 5.1 Tigole)/Basic Instinct 2 2006 Unrated (1080p x265 10bit Tigole).mkv - 3.04 GB
Basic Instinct 2 2006 Unrated (1080p Bluray x265 HEVC 10bit AAC 5.1 Tigole)/Featurettes/Behind the Scenes.mkv - 38.31 MB

Description



Basic Instinct 2 2006 Unrated in 1080p, encoded with x265 in HEVC and AAC 5.1 English, with English and Polish subtitles!
Encoded using the time consuming 2 pass, 10 bit color at 3350 kbps, from a Blu-ray source, for the highest quality possible.



Media Information

Code:
General
Format : Matroska
Format version : Version 4 / Version 2
File size : 3.04 GiB
Duration : 1 h 55 min
Overall bit rate : 3 759 kb/s
Encoded date : UTC 2017-06-21 19:21:49
Writing application : mkvmerge v12.0.0 ('Trust / Lust') 64bit
Writing library : libebml v1.3.4 + libmatroska v1.4.5

Video
ID : 1
Format : HEVC
Format/Info : High Efficiency Video Coding
Format profile : Main [email protected]/* */@Main
Codec ID : V_MPEGH/ISO/HEVC
Duration : 1 h 55 min
Bit rate : 3 350 kb/s
Width : 1 920 pixels
Height : 1 080 pixels
Display aspect ratio : 16:9
Frame rate mode : Constant
Frame rate : 23.976 (24000/1001) FPS
Color space : YUV
Chroma subsampling : 4:2:0
Bit depth : 10 bits
Bits/(Pixel*Frame) : 0.067
Stream size : 2.71 GiB (89%)
Writing library : x265 2.4+61-28bbc349d170:[Windows][GCC 6.3.0][64 bit] 10bit
Encoding settings : cpuid=1173503 / frame-threads=3 / numa-pools=8 / wpp / no-pmode / no-pme / no-psnr / no-ssim / log-level=2 / input-csp=1 / input-res=1920x1080 / interlace=0 / total-frames=166561 / level-idc=0 / high-tier=1 / uhd-bd=0 / ref=4 / no-allow-non-conformance / no-repeat-headers / annexb / no-aud / no-hrd / info / hash=0 / no-temporal-layers / open-gop / min-keyint=23 / keyint=250 / bframes=4 / b-adapt=2 / b-pyramid / bframe-bias=0 / rc-lookahead=25 / lookahead-slices=4 / scenecut=40 / no-intra-refresh / ctu=64 / min-cu-size=8 / rect / no-amp / max-tu-size=32 / tu-inter-depth=1 / tu-intra-depth=1 / limit-tu=0 / rdoq-level=2 / dynamic-rd=0.00 / no-ssim-rd / signhide / no-tskip / nr-intra=0 / nr-inter=0 / no-constrained-intra / strong-intra-smoothing / max-merge=3 / limit-refs=3 / limit-modes / me=3 / subme=3 / merange=57 / temporal-mvp / weightp / no-weightb / no-analyze-src-pics / deblock=0:0 / sao / no-sao-non-deblock / rd=4 / no-early-skip / rskip / no-fast-intra / no-tskip-fast / no-cu-lossless / no-b-intra / rdpenalty=0 / psy-rd=2.00 / psy-rdoq=1.00 / no-rd-refine / analysis-mode=0 / no-lossless / cbqpoffs=0 / crqpoffs=0 / rc=abr / bitrate=3350 / qcomp=0.60 / qpstep=4 / stats-write=0 / stats-read=2 / cplxblur=20.0 / qblur=0.5 / ipratio=1.40 / pbratio=1.30 / aq-mode=2 / aq-strength=1.00 / cutree / zone-count=0 / no-strict-cbr / qg-size=32 / no-rc-grain / qpmax=69 / qpmin=0 / sar=0 / overscan=0 / videoformat=5 / range=0 / colorprim=2 / transfer=2 / colormatrix=2 / chromaloc=0 / display-window=0 / max-cll=0,0 / min-luma=0 / max-luma=1023 / log2-max-poc-lsb=8 / vui-timing-info / vui-hrd-info / slices=1 / opt-qp-pps / opt-ref-list-length-pps / no-multi-pass-opt-rps / scenecut-bias=0.05 / no-opt-cu-delta-qp / no-aq-motion / no-hdr / no-hdr-opt / no-dhdr10-opt / refine-level=5 / scale-factor=0 / refine-intra=0 / refine-inter=0 / refine-mv=0 / no-limit-sao / ctu-info=0
Default : Yes
Forced : No

Audio
ID : 2
Format : AAC
Format/Info : Advanced Audio Codec
Format profile : LC
Codec ID : A_AAC
Duration : 1 h 55 min
Bit rate : 397 kb/s
Channel(s) : 6 channels
Channel positions : Front: L C R, Side: L R, LFE
Sampling rate : 48.0 kHz
Frame rate : 46.875 FPS (1024 spf)
Compression mode : Lossy
Delay relative to video : 20 ms
Stream size : 329 MiB (11%)
Language : English
Default : Yes
Forced : No

Text #1
ID : 3
Format : VobSub
Muxing mode : zlib
Codec ID : S_VOBSUB
Codec ID/Info : Picture based subtitle format used on DVDs
Duration : 1 h 48 min
Bit rate : 5 206 b/s
Count of elements : 1185
Stream size : 4.06 MiB (0%)
Language : English
Default : No
Forced : No

Text #2
ID : 4
Format : VobSub
Muxing mode : zlib
Codec ID : S_VOBSUB
Codec ID/Info : Picture based subtitle format used on DVDs
Duration : 1 h 51 min
Bit rate : 4 720 b/s
Count of elements : 1056
Stream size : 3.77 MiB (0%)
Language : Polish
Default : No
Forced : No

Menu
00:00:00.000 : pl:Rozdzia? 01
00:05:05.763 : pl:Rozdzia? 02
00:11:35.069 : pl:Rozdzia? 03
00:21:31.039 : pl:Rozdzia? 04
00:29:00.905 : pl:Rozdzia? 05
00:40:19.834 : pl:Rozdzia? 06
00:44:36.048 : pl:Rozdzia? 07
00:54:47.409 : pl:Rozdzia? 08
01:04:33.703 : pl:Rozdzia? 09
01:13:33.242 : pl:Rozdzia? 10
01:24:49.459 : pl:Rozdzia? 11
01:36:14.435 : pl:Rozdzia? 12
01:55:45.688 : pl:Rozdzia? 13


Source Information

Code:
Release : Basic.Instinct.2.2006.UNRATED.1080p.BluRay.AVC.DTS-HD.MA.5.1-FGT
Complete name : title08.mkv
File size : 33.2 GiB
Duration : 1 h 55 min
Overall bit rate mode : Variable
Overall bit rate : 41.0 Mb/s


Comments: