Movies torrents - Other torrents

The Magnificent Seven (2016) 720p BluRay x264 [Dual-Audio][Englis... torrent

Download Direct: The Magnificent Seven (2016) 720p BluRay x264 [Dual-Audio][Englis... - No Client needed
(0) (0)
Download torrent: The Magnificent Seven (2016) 720p BluRay x264 [Dual-Audio][Englis... torrent download
Torrent created: 05 Jul 2017 23:09:43
Torrent added: 07 Jul 2017 18:53:33 Report this torrent as fake!
Torrent's info hash: 2EF9969BD3C765FD83605D4ADE9A957AF402B3B2
Category: Movies / Other
Seeds: 4 Scraping... Last scraped 75 d ago
Leeches: 4
Downloads: 666
Announce(s):
Tracker S L DL
http://bigfoot1942.sektori.org:6969/announce---
http://tracker2.wasabii.com.tw:6969/announce---
http://tracker.mg64.net:6881/announce---
http://bt.artvid.ru:6969/announce---
http://open.acgtracker.com:1096/announce---
http://tracker.opentrackr.org/announce
http://announce.torrentsmd.com:6969/announce
http://tracker.trackerfix.com/announce
udp://tracker.openbittorrent.com:80/announce
udp://explodie.org:6969/announce
udp://mgtracker.org:6969/announce
udp://asnet.pw:2710/announce
udp://tracker.mgtracker.org:2710/announce
udp://tracker4.piratux.com:6969/announce
udp://tracker.trackerfix.com:80/announce
udp://tracker.pomf.se:80/announce
udp://torrent.gresille.org:80/announce
udp://tracker.x4w.co:6969/announce
udp://castradio.net:6969/announce
udp://p4p.arenabg.com:1337
udp://ipv4.tracker.harry.lu:80/announce
udp://inferno.demonoid.ooo:3389/announce
udp://tracker.sktorrent.net:6969/announce
udp://tracker.blackunicorn.xyz:6969/announce
udp://tracker.internetwarriors.net:1337/announce
udp://exodus.desync.com:6969/announce
udp://tracker.pirateparty.gr:6969/announce
udp://p4p.arenabg.ch:1337/announce
udp://glotorrents.pw:6969/announce
udp://eddie4.nl:6969/announce
udp://9.rarbg.me:2710/announce
udp://tracker.opentrackr.org:1337/announce
udp://tracker.zer0day.to:1337/announce
udp://9.rarbg.to:2710/announce
http://tracker.opentrackr.org:1337/announce
udp://tracker.leechers-paradise.org:6969/announce
udp://tracker.coppersurfer.tk:6969/announce
udp://tracker.piratepublic.com:1337/announce
udp://tracker.aletorrenty.pl:2710/announce
udp://zer0day.ch:1337/announce
udp://thetracker.org:80/announce
Total Size: 1.31 GB
Files:
The Magnificent Seven 2016 720p BluRay Eng.Hindi Mafiaking M2Tv/SaMple.mkv - 9.73 MB
The Magnificent Seven 2016 720p BluRay Eng.Hindi Mafiaking M2Tv/The Magnificent Seven 2016 720p BluRay Eng.Hindi Mafiaking M2Tv.mkv - 1.3 GB

Description










Quote:






Ratings: 6.9/10

Genere: Action, Adventure, Western

General
Unique ID : 223392136995056864595171481020528277479 (0xA80FC2B68BFD03288E04F3D8BBBB37E7)
Complete name : The Magnificent Seven (2016) 720p BluRay x264 [Dual-Audio][English DD 5.1 + Hindi DD 5.1 - Mafiaking - M2Tv.mkv
Format : Matroska
Format version : Version 4 / Version 2
File size : 1.30 GiB
Duration : 2 h 12 min
Overall bit rate : 1 400 kb/s
Movie name : The Magnificent Seven (2016) 720p BluRay x264 [Dual-Audio][English DD 5.1 + Hindi DD 5.1 - Mafiaking - M2Tv
Encoded date : UTC 2017-07-05 18:46:26
Writing application : mkvmerge v7.0.0 ('Where We Going') 32bit built on Jun 9 2014 15:08:34
Writing library : libebml v1.3.0 + libmatroska v1.4.1

Video
ID : 1
Format : AVC
Format/Info : Advanced Video Codec
Format profile : [email protected]/* */
Format settings, CABAC : Yes
Format settings, ReFrames : 4 frames
Codec ID : V_MPEG4/ISO/AVC
Duration : 2 h 12 min
Bit rate : 950 kb/s
Width : 1 280 pixels
Height : 536 pixels
Display aspect ratio : 2.40:1
Frame rate mode : Constant
Frame rate : 23.976 (24000/1001) FPS
Color space : YUV
Chroma subsampling : 4:2:0
Bit depth : 8 bits
Scan type : Progressive
Bits/(Pixel*Frame) : 0.058
Stream size : 903 MiB (68%)
Title : Mafiaking
Language : English
Default : Yes
Forced : No

Audio #1
ID : 2
Format : AC-3
Format/Info : Audio Coding 3
Format settings, Endianness : Big
Codec ID : A_AC3
Duration : 2 h 12 min
Bit rate mode : Constant
Bit rate : 224 kb/s
Channel(s) : 6 channels
Channel positions : Front: L C R, Side: L R, LFE
Sampling rate : 48.0 kHz
Frame rate : 31.250 FPS (1536 spf)
Bit depth : 16 bits
Compression mode : Lossy
Delay relative to video : 1 s 150 ms
Stream size : 213 MiB (16%)
Title : Mafiaking
Language : Hindi
Service kind : Complete Main
Default : Yes
Forced : No

Audio #2
ID : 3
Format : AC-3
Format/Info : Audio Coding 3
Format settings, Endianness : Big
Codec ID : A_AC3
Duration : 2 h 12 min
Bit rate mode : Constant
Bit rate : 224 kb/s
Channel(s) : 6 channels
Channel positions : Front: L C R, Side: L R, LFE
Sampling rate : 48.0 kHz
Frame rate : 31.250 FPS (1536 spf)
Bit depth : 16 bits
Compression mode : Lossy
Stream size : 213 MiB (16%)
Title : Mafiaking
Language : English
Service kind : Complete Main
Default : No
Forced : No





SAMPLE WITH IN TORRENT







**To View Image In Full Size Click on Thumbnails**

Comments: