Movies torrents - Other torrents

Transformers.The.Last.Knight.2017.TC.720p.XviD-VAiN torrent

Download Direct: Transformers.The.Last.Knight.2017.TC.720p.XviD-VAiN - No Client needed
(1) (0)
Download torrent: Transformers.The.Last.Knight.2017.TC.720p.XviD-VAiN torrent download
Torrent created: 05 Jul 2017 23:04:38
Torrent added: 07 Jul 2017 18:53:25 Report this torrent as fake!
Torrent's info hash: 6CD0F8F4B2849472366A0FC1358F9F2A382AA6B3
Category: Movies / Other
Seeds: - Scraping... Last scraped ...
Leeches: -
Downloads: -
Announce(s):
Tracker S L DL
http://bigfoot1942.sektori.org:6969/announce---
http://tracker2.wasabii.com.tw:6969/announce---
http://tracker.mg64.net:6881/announce---
http://bt.artvid.ru:6969/announce---
http://open.acgtracker.com:1096/announce---
http://tracker.opentrackr.org/announce
http://announce.torrentsmd.com:6969/announce
http://tracker.trackerfix.com/announce
udp://tracker.openbittorrent.com:80/announce
udp://explodie.org:6969/announce
udp://mgtracker.org:6969/announce
udp://asnet.pw:2710/announce
udp://tracker.mgtracker.org:2710/announce
udp://tracker4.piratux.com:6969/announce
udp://tracker.trackerfix.com:80/announce
udp://tracker.pomf.se:80/announce
udp://torrent.gresille.org:80/announce
udp://tracker.x4w.co:6969/announce
udp://castradio.net:6969/announce
udp://p4p.arenabg.com:1337
udp://ipv4.tracker.harry.lu:80/announce
udp://inferno.demonoid.ooo:3389/announce
udp://tracker.sktorrent.net:6969/announce
udp://tracker.blackunicorn.xyz:6969/announce
udp://tracker.internetwarriors.net:1337/announce
udp://exodus.desync.com:6969/announce
udp://tracker.pirateparty.gr:6969/announce
udp://p4p.arenabg.ch:1337/announce
udp://glotorrents.pw:6969/announce
udp://eddie4.nl:6969/announce
udp://9.rarbg.me:2710/announce
udp://tracker.opentrackr.org:1337/announce
udp://tracker.zer0day.to:1337/announce
udp://9.rarbg.to:2710/announce
http://tracker.opentrackr.org:1337/announce
udp://tracker.leechers-paradise.org:6969/announce
udp://tracker.coppersurfer.tk:6969/announce
udp://public.popcorn-tracker.org:6969/announce
udp://tracker.grepler.com:6969/announce
udp://p4p.arenabg.com:1337/announce
udp://shadowshq.yi.org:6969/announce
Total Size: 2.68 GB
Files:
Transformers.The.Last.Knight.2017.TC.720p.XviD-VAiN/Transformers.The.Last.Knight.2017.TC.720p.XviD-VAiN.avi - 2.68 GB
Transformers.The.Last.Knight.2017.TC.720p.XviD-VAiN/VAiN.nfo - 2.91 KB

Description

Transformers.The.Last.Knight.2017.TC.720p.XviD-VAiN

ImDb: http://www.imdb.com/title/tt3371366



Complete name : Transformers.The.Last.Knight.2017.TC.720p.XviD-VAiN.avi
Format : AVI
Format/Info : Audio Video Interleave
Format profile : OpenDML
File size : 2.68 GiB
Duration : 2 h 30 min
Overall bit rate : 2 550 kb/s
Writing application : VirtualDubMod 1.5.10.2 (build 2542/release)
Writing library : VirtualDubMod build 2542/release

Video
ID : 0
Format : MPEG-4 Visual
Format profile : Advanced [email protected]/* */
Format settings, BVOP : 1
Format settings, QPel : No
Format settings, GMC : No warppoints
Format settings, Matrix : Default (H.263)
Codec ID : XVID
Codec ID/Hint : XviD
Duration : 2 h 30 min
Bit rate : 2 347 kb/s
Width : 1 280 pixels
Height : 720 pixels
Display aspect ratio : 16:9
Frame rate : 25.000 FPS
Color space : YUV
Chroma subsampling : 4:2:0
Bit depth : 8 bits
Scan type : Progressive
Compression mode : Lossy
Bits/(Pixel*Frame) : 0.102
Stream size : 2.46 GiB (92%)
Writing library : XviD 67

Audio
ID : 1
Format : AC-3
Format/Info : Audio Coding 3
Format settings, Endianness : Big
Codec ID : 2000
Duration : 2 h 30 min
Bit rate mode : Constant
Bit rate : 192 kb/s
Channel(s) : 2 channels
Channel positions : Front: L R
Sampling rate : 48.0 kHz
Frame rate : 31.250 FPS (1536 spf)
Bit depth : 16 bits
Compression mode : Lossy
Stream size : 206 MiB (8%)
Alignment : Split accross interleaves
Interleave, duration : 40 ms (1.00 video frame)
Interleave, preload duration : 500 ms
Service kind : Complete Main






Click To View Screenshot

Click To View Screenshot

Click To View Screenshot

Comments: