Movies torrents - Other torrents

The Avengers 2012 1080p Bluray x265 AAC 7.1 - GetSchwifty torrent

Download Direct: The Avengers 2012 1080p Bluray x265 AAC 7.1 - GetSchwifty - No Client needed
(0) (0)
Download torrent: The Avengers 2012 1080p Bluray x265 AAC 7.1 - GetSchwifty torrent download
Torrent created: 05 Jul 2017 21:56:53
Torrent added: 07 Jul 2017 18:52:40 Report this torrent as fake!
Torrent's info hash: 7C5374DBD49BA981EACDE0648FB7D975C5EFAD90
Category: Movies / Other
Seeds: - Scraping... Last scraped 85 d ago
Leeches: -
Downloads: -
Announce(s):
Tracker S L DL
http://bigfoot1942.sektori.org:6969/announce---
http://tracker2.wasabii.com.tw:6969/announce---
http://tracker.mg64.net:6881/announce---
http://bt.artvid.ru:6969/announce---
http://open.acgtracker.com:1096/announce---
http://tracker.opentrackr.org/announce
http://announce.torrentsmd.com:6969/announce
http://tracker.trackerfix.com/announce
udp://tracker.openbittorrent.com:80/announce
udp://explodie.org:6969/announce
udp://mgtracker.org:6969/announce
udp://asnet.pw:2710/announce
udp://tracker.mgtracker.org:2710/announce
udp://tracker4.piratux.com:6969/announce
udp://tracker.trackerfix.com:80/announce
udp://tracker.pomf.se:80/announce
udp://torrent.gresille.org:80/announce
udp://tracker.x4w.co:6969/announce
udp://castradio.net:6969/announce
udp://p4p.arenabg.com:1337
udp://ipv4.tracker.harry.lu:80/announce
udp://inferno.demonoid.ooo:3389/announce
udp://tracker.sktorrent.net:6969/announce
udp://tracker.blackunicorn.xyz:6969/announce
udp://tracker.internetwarriors.net:1337/announce
udp://exodus.desync.com:6969/announce
udp://tracker.pirateparty.gr:6969/announce
udp://p4p.arenabg.ch:1337/announce
udp://glotorrents.pw:6969/announce
udp://eddie4.nl:6969/announce
udp://9.rarbg.me:2710/announce
udp://tracker.opentrackr.org:1337/announce
udp://tracker.zer0day.to:1337/announce
udp://9.rarbg.to:2710/announce
http://tracker.opentrackr.org:1337/announce
udp://tracker.leechers-paradise.org:6969/announce
udp://tracker.coppersurfer.tk:6969/announce
udp://tracker.torrent.eu.org:451/announce
Total Size: 3.04 GB
Files:
The Avengers 2012 1080p Bluray x265 AAC 7.1 - GetSchwifty.mkv - 3.04 GB

Description

Source File:

The Avengers 2012 1080p CEE BluRay REMUX AVC DTS-HD MA 7 1 - MRG



Media Information:


Code:
General
Unique ID                      : 247985826179605748778486854232963381719 (0xBA9055352702EE1786AE0361D39579D7)
Complete name                  : G:Encodeaveng1The Avengers 2012 1080p Bluray x265 AAC 7.1 - GetSchwifty.mkv
Format                         : Matroska
Format version                 : Version 4 / Version 2
File size                      : 3.04 GiB
Duration                       : 2 h 22 min
Overall bit rate               : 3 041 kb/s
Movie name                     : The Avengers
Encoded date                   : UTC 2017-07-03 14:03:37
Writing application            : mkvmerge v11.0.0 ('Alive') 64bit
Writing library                : libebml v1.3.4 + libmatroska v1.4.5

Video
ID                             : 1
Format                         : HEVC
Format/Info                    : High Efficiency Video Coding
Format profile                 : Main [email protected]/* */@Main
Codec ID                       : V_MPEGH/ISO/HEVC
Duration                       : 2 h 22 min
Bit rate                       : 2 632 kb/s
Width                          : 1 920 pixels
Height                         : 1 080 pixels
Display aspect ratio           : 16:9
Frame rate mode                : Constant
Frame rate                     : 23.976 (24000/1001) FPS
Color space                    : YUV
Chroma subsampling             : 4:2:0
Bit depth                      : 10 bits
Bits/(Pixel*Frame)             : 0.053
Stream size                    : 2.63 GiB (87%)
Writing library                : x265 2.4+26-355cf3582263:[Windows][GCC 5.3.1][64 bit] 10bit
Encoding settings              : cpuid=1050111 / frame-threads=3 / numa-pools=8 / wpp / no-pmode / no-pme / no-psnr / no-ssim / log-level=2 / input-csp=1 / input-res=1920x1080 / interlace=0 / total-frames=205592 / level-idc=0 / high-tier=1 / uhd-bd=0 / ref=5 / no-allow-non-conformance / no-repeat-headers / annexb / no-aud / no-hrd / info / hash=0 / no-temporal-layers / open-gop / min-keyint=23 / keyint=250 / bframes=8 / b-adapt=2 / b-pyramid / bframe-bias=0 / rc-lookahead=80 / lookahead-slices=6 / scenecut=40 / no-intra-refresh / ctu=64 / min-cu-size=8 / no-rect / no-amp / max-tu-size=32 / tu-inter-depth=1 / tu-intra-depth=1 / limit-tu=0 / rdoq-level=0 / dynamic-rd=0.00 / no-ssim-rd / signhide / no-tskip / nr-intra=0 / nr-inter=0 / no-constrained-intra / strong-intra-smoothing / max-merge=3 / limit-refs=3 / limit-modes / me=3 / subme=5 / merange=57 / temporal-mvp / weightp / weightb / no-analyze-src-pics / deblock=0:0 / sao / no-sao-non-deblock / rd=3 / no-early-skip / rskip / no-fast-intra / no-tskip-fast / no-cu-lossless / no-b-intra / rdpenalty=0 / psy-rd=0.30 / psy-rdoq=0.00 / no-rd-refine / analysis-mode=0 / no-lossless / cbqpoffs=0 / crqpoffs=0 / rc=abr / bitrate=2632 / qcomp=0.60 / qpstep=4 / stats-write=0 / stats-read=2 / cplxblur=20.0 / qblur=0.5 / ipratio=1.40 / pbratio=1.30 / aq-mode=3 / aq-strength=1.00 / cutree / zone-count=0 / no-strict-cbr / qg-size=32 / no-rc-grain / qpmax=69 / qpmin=0 / sar=0 / overscan=0 / videoformat=5 / range=0 / colorprim=2 / transfer=2 / colormatrix=2 / chromaloc=0 / display-window=0 / max-cll=0,0 / min-luma=0 / max-luma=1023 / log2-max-poc-lsb=8 / vui-timing-info / vui-hrd-info / slices=1 / opt-qp-pps / opt-ref-list-length-pps / no-multi-pass-opt-rps / scenecut-bias=0.05 / no-opt-cu-delta-qp / aq-motion / no-hdr / no-hdr-opt / no-dhdr10-opt / refine-level=5 / no-limit-sao / ctu-info=0
Default                        : Yes
Forced                         : No

Audio
ID                             : 2
Format                         : AAC
Format/Info                    : Advanced Audio Codec
Format profile                 : LC
Codec ID                       : A_AAC
Duration                       : 2 h 22 min
Bit rate                       : 353 kb/s
Channel(s)                     : 7 channels
Channel(s)_Original            : 8 channels
Channel positions              : Front: L C R, Side: L R, Back: L R, LFE
Sampling rate                  : 48.0 kHz
Frame rate                     : 46.875 FPS (1024 spf)
Compression mode               : Lossy
Delay relative to video        : 9 ms
Stream size                    : 362 MiB (12%)
Title                          : English (AAC)
Language                       : English
Default                        : Yes
Forced                         : No

Text #1
ID                             : 3
Format                         : PGS
Muxing mode                    : zlib
Codec ID                       : S_HDMV/PGS
Codec ID/Info                  : Picture based subtitle format used on BDs/HD-DVDs
Duration                       : 2 h 15 min
Bit rate                       : 12.0 kb/s
Count of elements              : 4086
Stream size                    : 11.7 MiB (0%)
Language                       : English
Default                        : No
Forced                         : No

Text #2
ID                             : 4
Format                         : PGS
Muxing mode                    : zlib
Codec ID                       : S_HDMV/PGS
Codec ID/Info                  : Picture based subtitle format used on BDs/HD-DVDs
Duration                       : 2 h 15 min
Bit rate                       : 10.1 kb/s
Count of elements              : 3532
Stream size                    : 9.78 MiB (0%)
Language                       : Russian
Default                        : No
Forced                         : No

Text #3
ID                             : 5
Format                         : PGS
Muxing mode                    : zlib
Codec ID                       : S_HDMV/PGS
Codec ID/Info                  : Picture based subtitle format used on BDs/HD-DVDs
Duration                       : 2 h 15 min
Bit rate                       : 7 327 b/s
Count of elements              : 2150
Stream size                    : 7.09 MiB (0%)
Language                       : Swedish
Default                        : No
Forced                         : No

Text #4
ID                             : 6
Format                         : PGS
Muxing mode                    : zlib
Codec ID                       : S_HDMV/PGS
Codec ID/Info                  : Picture based subtitle format used on BDs/HD-DVDs
Duration                       : 2 h 15 min
Bit rate                       : 8 083 b/s
Count of elements              : 3184
Stream size                    : 7.82 MiB (0%)
Language                       : Norwegian
Default                        : No
Forced                         : No

Text #5
ID                             : 7
Format                         : PGS
Muxing mode                    : zlib
Codec ID                       : S_HDMV/PGS
Codec ID/Info                  : Picture based subtitle format used on BDs/HD-DVDs
Duration                       : 2 h 15 min
Bit rate                       : 9 110 b/s
Count of elements              : 2878
Stream size                    : 8.82 MiB (0%)
Language                       : Danish
Default                        : No
Forced                         : No

Text #6
ID                             : 8
Format                         : PGS
Muxing mode                    : zlib
Codec ID                       : S_HDMV/PGS
Codec ID/Info                  : Picture based subtitle format used on BDs/HD-DVDs
Duration                       : 2 h 15 min
Bit rate                       : 8 147 b/s
Count of elements              : 3522
Stream size                    : 7.89 MiB (0%)
Language                       : Finnish
Default                        : No
Forced                         : No

Menu
00:00:00.000                   : en:00:00:00.000
00:08:02.315                   : en:00:08:02.315
00:11:49.167                   : en:00:11:49.167
00:15:18.751                   : en:00:15:18.751
00:20:33.482                   : en:00:20:33.482
00:23:04.258                   : en:00:23:04.258
00:29:39.444                   : en:00:29:39.444
00:37:23.992                   : en:00:37:23.992
00:42:47.982                   : en:00:42:47.982
00:50:22.269                   : en:00:50:22.269
01:01:04.661                   : en:01:01:04.661
01:14:05.107                   : en:01:14:05.107
01:28:01.234                   : en:01:28:01.234
01:38:20.561                   : en:01:38:20.561
01:45:40.167                   : en:01:45:40.167
01:51:15.085                   : en:01:51:15.085
01:57:47.769                   : en:01:57:47.769
02:04:38.680                   : en:02:04:38.680
02:09:39.397                   : en:02:09:39.397
02:13:10.691                   : en:02:13:10.691


Comments: