Movies torrents - Other torrents

Sex.Doll.2016.720p.BluRay.x264-x0r torrent

Download Direct: Sex.Doll.2016.720p.BluRay.x264-x0r - No Client needed
(1) (0)
Download torrent: Sex.Doll.2016.720p.BluRay.x264-x0r torrent download
Torrent created: 05 Jul 2017 21:51:43
Torrent added: 07 Jul 2017 18:52:37 Report this torrent as fake!
Torrent's info hash: 9304ED7CCE23527C9490B00EE77CE00ECA644713
Category: Movies / Other
Seeds: - Scraping... Last scraped ...
Leeches: -
Downloads: -
Announce(s):
Tracker S L DL
http://bigfoot1942.sektori.org:6969/announce---
http://tracker2.wasabii.com.tw:6969/announce---
http://tracker.mg64.net:6881/announce---
http://bt.artvid.ru:6969/announce---
http://open.acgtracker.com:1096/announce---
http://tracker.opentrackr.org/announce
http://announce.torrentsmd.com:6969/announce
http://tracker.trackerfix.com/announce
udp://tracker.openbittorrent.com:80/announce
udp://explodie.org:6969/announce
udp://mgtracker.org:6969/announce
udp://asnet.pw:2710/announce
udp://tracker.mgtracker.org:2710/announce
udp://tracker4.piratux.com:6969/announce
udp://tracker.trackerfix.com:80/announce
udp://tracker.pomf.se:80/announce
udp://torrent.gresille.org:80/announce
udp://tracker.x4w.co:6969/announce
udp://castradio.net:6969/announce
udp://p4p.arenabg.com:1337
udp://ipv4.tracker.harry.lu:80/announce
udp://inferno.demonoid.ooo:3389/announce
udp://tracker.sktorrent.net:6969/announce
udp://tracker.blackunicorn.xyz:6969/announce
udp://tracker.internetwarriors.net:1337/announce
udp://exodus.desync.com:6969/announce
udp://tracker.pirateparty.gr:6969/announce
udp://p4p.arenabg.ch:1337/announce
udp://glotorrents.pw:6969/announce
udp://eddie4.nl:6969/announce
udp://9.rarbg.me:2710/announce
udp://tracker.opentrackr.org:1337/announce
udp://tracker.zer0day.to:1337/announce
udp://9.rarbg.to:2710/announce
http://tracker.opentrackr.org:1337/announce
udp://tracker.leechers-paradise.org:6969/announce
udp://tracker.coppersurfer.tk:6969/announce
udp://public.popcorn-tracker.org:6969/announce
udp://tracker.grepler.com:6969/announce
udp://p4p.arenabg.com:1337/announce
udp://shadowshq.yi.org:6969/announce
Total Size: 2.21 GB
Files:
Sex.Doll.2016.720p.BluRay.x264-x0r/Sex.Doll.2016.720p.BluRay.x264-x0r.fanart.jpg - 134.86 KB
Sex.Doll.2016.720p.BluRay.x264-x0r/Sex.Doll.2016.720p.BluRay.x264-x0r.jpg - 529.28 KB
Sex.Doll.2016.720p.BluRay.x264-x0r/Sex.Doll.2016.720p.BluRay.x264-x0r.mkv - 2.16 GB
Sex.Doll.2016.720p.BluRay.x264-x0r/Sex.Doll.2016.720p.BluRay.x264-x0r.nfo - 54 B
Sex.Doll.2016.720p.BluRay.x264-x0r/Sex.Doll.2016.720p.BluRay.x264-x0r[TRAILER-Theatrical Trailer].mov - 52.01 MB

Description

Sex.Doll.2016.720p.BluRay.x264-x0r

ImDb: http://www.imdb.com/title/tt4937564



Complete name : Sex.Doll.2016.720p.BluRay.x264-x0r[TRAILER-Theatrical Trailer].mov
Format : MPEG-4
Format profile : QuickTime
Codec ID : qt 2005.03 (qt )
File size : 52.0 MiB
Duration : 1 min 26 s
Overall bit rate : 5 073 kb/s
Encoded date : UTC 2017-01-26 00:01:09
Tagged date : UTC 2017-01-26 00:01:10
Writing library : Apple QuickTime
Media/UUID : E052F824-4A75-4BCE-8315-95B7E1C015B7
Media/History/UUID : 412D5098-B762-474D-9EC0-3708A7A2AE45

Video
ID : 1
Format : AVC
Format/Info : Advanced Video Codec
Format profile : [email protected]/* */
Format settings, CABAC : No
Format settings, ReFrames : 2 frames
Codec ID : avc1
Codec ID/Info : Advanced Video Coding
Duration : 1 min 26 s
Bit rate : 4 975 kb/s
Width : 1 280 pixels
Height : 544 pixels
Display aspect ratio : 2.35:1
Frame rate mode : Constant
Frame rate : 24.000 FPS
Color space : YUV
Chroma subsampling : 4:2:0
Bit depth : 8 bits
Scan type : Progressive
Bits/(Pixel*Frame) : 0.298
Stream size : 51.0 MiB (98%)
Language : English
Encoded date : UTC 2017-01-26 00:01:08
Tagged date : UTC 2017-01-26 00:01:10
Color range : Limited
Color primaries : BT.709
Transfer characteristics : BT.709
Matrix coefficients : BT.709

Audio
ID : 3
Format : AAC
Format/Info : Advanced Audio Codec
Format profile : LC
Codec ID : 40
Duration : 1 min 26 s
Source duration : 1 min 26 s
Bit rate mode : Constant
Bit rate : 96.0 kb/s
Channel(s) : 2 channels
Channel positions : Front: L R
Sampling rate : 44.1 kHz
Frame rate : 43.066 FPS (1024 spf)
Compression mode : Lossy
Stream size : 981 KiB (2%)
Source stream size : 981 KiB (2%)
Language : English
Encoded date : UTC 2017-01-26 00:01:09
Tagged date : UTC 2017-01-26 00:01:10

Other
ID : 2
Type : Time code
Format : QuickTime TC
Duration : 1 min 26 s
Time code of first frame : 01:00:00:00
Time code, striped : Yes
Language : English
Encoded date : UTC 2017-01-26 00:01:08
Tagged date : UTC 2017-01-26 00:01:10
Bit rate mode : CBR






Click To View Screenshot

Click To View Screenshot

Click To View Screenshot



Click To View Screenshot

Click To View Screenshot

Click To View Screenshot

Comments: