Movies torrents - Other torrents

Jack_Reacher_Never_Go_Back 2016 10bit Dts hevc-d3g. torrent

Download Direct: Jack_Reacher_Never_Go_Back 2016 10bit Dts hevc-d3g. - No Client needed
(0) (0)
Download torrent: Jack_Reacher_Never_Go_Back 2016 10bit Dts hevc-d3g. torrent download
Torrent created: 05 Jul 2017 21:20:16
Torrent added: 07 Jul 2017 18:52:31 Report this torrent as fake!
Torrent's info hash: 1623FD6B4DD1E0FC1C0419CAC7E559A01B69C3E5
Category: Movies / Other
Seeds: - Scraping... Last scraped ...
Leeches: -
Downloads: -
Announce(s):
Tracker S L DL
http://bigfoot1942.sektori.org:6969/announce---
http://tracker2.wasabii.com.tw:6969/announce---
http://tracker.mg64.net:6881/announce---
http://bt.artvid.ru:6969/announce---
http://open.acgtracker.com:1096/announce---
http://tracker.opentrackr.org/announce
http://announce.torrentsmd.com:6969/announce
http://tracker.trackerfix.com/announce
udp://tracker.openbittorrent.com:80/announce
udp://explodie.org:6969/announce
udp://mgtracker.org:6969/announce
udp://asnet.pw:2710/announce
udp://tracker.mgtracker.org:2710/announce
udp://tracker4.piratux.com:6969/announce
udp://tracker.trackerfix.com:80/announce
udp://tracker.pomf.se:80/announce
udp://torrent.gresille.org:80/announce
udp://tracker.x4w.co:6969/announce
udp://castradio.net:6969/announce
udp://p4p.arenabg.com:1337
udp://ipv4.tracker.harry.lu:80/announce
udp://inferno.demonoid.ooo:3389/announce
udp://tracker.sktorrent.net:6969/announce
udp://tracker.blackunicorn.xyz:6969/announce
udp://tracker.internetwarriors.net:1337/announce
udp://exodus.desync.com:6969/announce
udp://tracker.pirateparty.gr:6969/announce
udp://p4p.arenabg.ch:1337/announce
udp://glotorrents.pw:6969/announce
udp://eddie4.nl:6969/announce
udp://9.rarbg.me:2710/announce
udp://tracker.opentrackr.org:1337/announce
udp://tracker.zer0day.to:1337/announce
udp://9.rarbg.to:2710/announce
http://tracker.opentrackr.org:1337/announce
udp://tracker.leechers-paradise.org:6969/announce
udp://tracker.coppersurfer.tk:6969/announce
udp://public.popcorn-tracker.org:6969/announce
udp://tracker.grepler.com:6969/announce
udp://p4p.arenabg.com:1337/announce
udp://shadowshq.yi.org:6969/announce
Total Size: 5.96 GB
Files:
Jack_Reacher_Never_Go_Back 2016 10bit Dts hevc-d3g./Jack Reacher-Never Go Back 2016 BluRay 1080p AC-3 TrueHD-7.1 Atmos and DD5.1 H2265-d3g.mkv - 5.96 GB

Description

Jack_Reacher_Never_Go_Back 2016 10bit Dts hevc-d3g.

ImDb: http://www.imdb.com/title/tt3393786



Complete name : Jack Reacher-Never Go Back 2016 BluRay 1080p AC-3 TrueHD-7.1 Atmos and DD5.1 H2265-d3g.mkv
Format : Matroska
Format version : Version 4 / Version 2
File size : 5.96 GiB
Duration : 1 h 58 min
Overall bit rate mode : Variable
Overall bit rate : 7 218 kb/s
Movie name : Jack Reacher-Never Go Back 2016 BluRay 1080p AC-3 TrueHD-7.1 Atmos and DD5.1 H2265-d3g
Encoded date : UTC 2017-06-29 12:23:42
Writing application : DVDFab 10.0.4.3
Writing library : libebml v1.3.4 + libmatroska v1.4.5

Video
ID : 1
Format : HEVC
Format/Info : High Efficiency Video Coding
Format profile : Main [email protected]/* */@Main
Codec ID : V_MPEGH/ISO/HEVC
Duration : 1 h 58 min
Bit rate : 2 167 kb/s
Width : 1 920 pixels
Height : 804 pixels
Display aspect ratio : 2.40:1
Frame rate mode : Constant
Frame rate : 23.976 (24000/1001) FPS
Color space : YUV
Chroma subsampling : 4:2:0
Bit depth : 10 bits
Bits/(Pixel*Frame) : 0.059
Stream size : 1.79 GiB (30%)
Default : Yes
Forced : No
Color range : Limited
Color primaries : BT.709
Transfer characteristics : BT.709
Matrix coefficients : BT.709

Audio #1
ID : 2
Format : TrueHD
Format profile : TrueHD+Atmos / TrueHD
Codec ID : A_TRUEHD
Duration : 1 h 58 min
Bit rate mode : Variable
Bit rate : 4 326 kb/s
Maximum bit rate : 7 758 kb/s
Channel(s) : Object Based / 8 channels
Channel positions : Object Based / Front: L C R, Side: L R, Back: L R, LFE
Sampling rate : / 48.0 kHz
Frame rate : 1 200.000 FPS (40 spf)
Compression mode : Lossless
Stream size : 3.57 GiB (60%)
Language : English
Default : Yes
Forced : No

Audio #2
ID : 3
Format : AC-3
Format/Info : Audio Coding 3
Format settings, Endianness : Big
Codec ID : A_AC3
Duration : 1 h 58 min
Bit rate mode : Constant
Bit rate : 640 kb/s
Channel(s) : 6 channels
Channel positions : Front: L C R, Side: L R, LFE
Sampling rate : 48.0 kHz
Frame rate : 31.250 FPS (1536 spf)
Bit depth : 16 bits
Compression mode : Lossy
Stream size : 541 MiB (9%)
Language : English
Service kind : Complete Main
Default : No
Forced : No

Text #1
ID : 4
Format : VobSub
Codec ID : S_VOBSUB
Codec ID/Info : Picture based subtitle format used on DVDs
Duration : 1 h 51 min
Bit rate : 8 088 b/s
Count of elements : 1412
Stream size : 6.46 MiB (0%)
Language : English
Default : No
Forced : No

Text #2
ID : 5
Format : VobSub
Codec ID : S_VOBSUB
Codec ID/Info : Picture based subtitle format used on DVDs
Duration : 1 h 52 min
Bit rate : 8 983 b/s
Count of elements : 1530
Stream size : 7.21 MiB (0%)
Language : English
Default : No
Forced : No

Menu
00:00:00.000 : en:(01)00:00:00:000
00:07:00.628 : en:(02)00:07:00:628
00:15:19.877 : en:(03)00:15:19:877
00:20:33.857 : en:(04)00:20:33:857
00:29:04.576 : en:(05)00:29:04:576
00:34:35.740 : en:(06)00:34:35:740
00:42:40.140 : en:(07)00:42:40:140
00:49:28.006 : en:(08)00:49:28:006
00:58:44.562 : en:(09)00:58:44:562
01:03:10.161 : en:(10)01:03:10:161
01:09:35.754 : en:(11)01:09:35:754
01:15:05.334 : en:(12)01:15:05:334
01:21:59.664 : en:(13)01:21:59:664
01:27:07.222 : en:(14)01:27:07:222
01:34:14.065 : en:(15)01:34:14:065
01:46:44.856 : en:(16)01:46:44:856
01:53:30.845 : en:(17)01:53:30:845






Click To View Screenshot

Click To View Screenshot

Click To View Screenshot

Comments: