Movies torrents - Other torrents

Let Her Out 2016 10bit dts hevc-d3g. torrent

Download Direct: Let Her Out 2016 10bit dts hevc-d3g. - No Client needed
(0) (0)
Download torrent: Let Her Out 2016 10bit dts hevc-d3g. torrent download
Torrent created: 05 Jul 2017 21:21:53
Torrent added: 07 Jul 2017 18:52:31 Report this torrent as fake!
Torrent's info hash: 25E7A145EEB5B2DCAF5A707DD1D6425847E04E5C
Category: Movies / Other
Seeds: - Scraping... Last scraped ...
Leeches: -
Downloads: -
Announce(s):
Tracker S L DL
http://bigfoot1942.sektori.org:6969/announce---
http://tracker2.wasabii.com.tw:6969/announce---
http://tracker.mg64.net:6881/announce---
http://bt.artvid.ru:6969/announce---
http://open.acgtracker.com:1096/announce---
http://tracker.opentrackr.org/announce
http://announce.torrentsmd.com:6969/announce
http://tracker.trackerfix.com/announce
udp://tracker.openbittorrent.com:80/announce
udp://explodie.org:6969/announce
udp://mgtracker.org:6969/announce
udp://asnet.pw:2710/announce
udp://tracker.mgtracker.org:2710/announce
udp://tracker4.piratux.com:6969/announce
udp://tracker.trackerfix.com:80/announce
udp://tracker.pomf.se:80/announce
udp://torrent.gresille.org:80/announce
udp://tracker.x4w.co:6969/announce
udp://castradio.net:6969/announce
udp://p4p.arenabg.com:1337
udp://ipv4.tracker.harry.lu:80/announce
udp://inferno.demonoid.ooo:3389/announce
udp://tracker.sktorrent.net:6969/announce
udp://tracker.blackunicorn.xyz:6969/announce
udp://tracker.internetwarriors.net:1337/announce
udp://exodus.desync.com:6969/announce
udp://tracker.pirateparty.gr:6969/announce
udp://p4p.arenabg.ch:1337/announce
udp://glotorrents.pw:6969/announce
udp://eddie4.nl:6969/announce
udp://9.rarbg.me:2710/announce
udp://tracker.opentrackr.org:1337/announce
udp://tracker.zer0day.to:1337/announce
udp://9.rarbg.to:2710/announce
http://tracker.opentrackr.org:1337/announce
udp://tracker.leechers-paradise.org:6969/announce
udp://tracker.coppersurfer.tk:6969/announce
udp://public.popcorn-tracker.org:6969/announce
udp://tracker.grepler.com:6969/announce
udp://p4p.arenabg.com:1337/announce
udp://shadowshq.yi.org:6969/announce
Total Size: 2.58 GB
Files:
Let Her Out 2016 10bit dts hevc-d3g./Let Her Out 2016 BluRay 10Bit 1080p Dts-HD 5.1 H265-d3g.mkv - 2.58 GB

Description

Let Her Out 2016 10bit dts hevc-d3g.

ImDb: http://www.imdb.com/title/tt5810122



Complete name : Let Her Out 2016 BluRay 10Bit 1080p Dts-HD 5.1 H265-d3g.mkv
Format : Matroska
Format version : Version 4 / Version 2
File size : 2.58 GiB
Duration : 1 h 27 min
Overall bit rate : 4 240 kb/s
Movie name : Let Her Out 2016 BluRay 10Bit 1080p Dts-HD 5.1 H265-d3g
Encoded date : UTC 2017-06-29 17:11:58
Writing application : DVDFab 10.0.4.3
Writing library : libebml v1.3.4 + libmatroska v1.4.5

Video
ID : 1
Format : HEVC
Format/Info : High Efficiency Video Coding
Format profile : Main [email protected]/* */@Main
Codec ID : V_MPEGH/ISO/HEVC
Duration : 1 h 26 min
Bit rate : 2 195 kb/s
Width : 1 920 pixels
Height : 816 pixels
Display aspect ratio : 2.35:1
Frame rate mode : Constant
Frame rate : 23.976 (24000/1001) FPS
Color space : YUV
Chroma subsampling : 4:2:0
Bit depth : 10 bits
Bits/(Pixel*Frame) : 0.058
Stream size : 1.33 GiB (52%)
Default : Yes
Forced : No
Color range : Limited
Color primaries : BT.709
Transfer characteristics : BT.709
Matrix coefficients : BT.709

Audio
ID : 2
Format : DTS
Format/Info : Digital Theater Systems
Format profile : HRA / Core
Mode : 16
Format settings, Endianness : Big
Codec ID : A_DTS
Duration : 1 h 27 min
Bit rate mode : Constant
Bit rate : 2 046 kb/s / 1 509 kb/s
Channel(s) : 6 channels
Channel positions : Front: L C R, Side: L R, LFE
Sampling rate : 48.0 kHz
Frame rate : 93.750 FPS (512 spf)
Bit depth : 16 bits
Compression mode : Lossy
Stream size : 1.24 GiB (48%)
Language : English
Default : Yes
Forced : No

Menu
00:00:00.000 : en:(01)00:00:00:000
00:06:31.265 : en:(02)00:06:31:265
00:13:21.133 : en:(03)00:13:21:133
00:20:25.599 : en:(04)00:20:25:599
00:27:09.669 : en:(05)00:27:09:669
00:33:33.594 : en:(06)00:33:33:594
00:42:07.650 : en:(07)00:42:07:650
00:51:19.034 : en:(08)00:51:19:034
00:57:41.291 : en:(09)00:57:41:291
01:06:45.584 : en:(10)01:06:45:584
01:14:29.173 : en:(11)01:14:29:173
01:24:20.388 : en:(12)01:24:20:388






Click To View Screenshot

Click To View Screenshot

Click To View Screenshot

Comments: