Anime / Hentai torrents - Other torrents

Code Geass: Akito the Exiled 2 [EngDub] Download torrent

Download Direct: Code Geass: Akito the Exiled 2 [EngDub] Download - No Client needed
(0) (0)
Download torrent: Code Geass: Akito the Exiled 2 [EngDub] Download torrent download
Torrent created: 05 Jul 2017 11:49:23
Torrent added: 07 Jul 2017 17:55:04 Report this torrent as fake!
Torrent's info hash: 5EA2A27EA8DA3DFD98C4C4A1FE58287C750F33FB
Category: Anime / Hentai / Other
Seeds: - Scraping... Last scraped ...
Leeches: -
Downloads: -
Announce(s):
Tracker S L DL
http://bigfoot1942.sektori.org:6969/announce---
http://tracker2.wasabii.com.tw:6969/announce---
http://tracker.mg64.net:6881/announce---
http://bt.artvid.ru:6969/announce---
http://open.acgtracker.com:1096/announce---
http://tracker.opentrackr.org/announce
http://announce.torrentsmd.com:6969/announce
http://tracker.trackerfix.com/announce
udp://tracker.openbittorrent.com:80/announce
udp://explodie.org:6969/announce
udp://mgtracker.org:6969/announce
udp://asnet.pw:2710/announce
udp://tracker.mgtracker.org:2710/announce
udp://tracker4.piratux.com:6969/announce
udp://tracker.trackerfix.com:80/announce
udp://tracker.pomf.se:80/announce
udp://torrent.gresille.org:80/announce
udp://tracker.x4w.co:6969/announce
udp://castradio.net:6969/announce
udp://p4p.arenabg.com:1337
udp://ipv4.tracker.harry.lu:80/announce
udp://inferno.demonoid.ooo:3389/announce
udp://tracker.sktorrent.net:6969/announce
udp://tracker.blackunicorn.xyz:6969/announce
udp://tracker.internetwarriors.net:1337/announce
udp://exodus.desync.com:6969/announce
udp://tracker.pirateparty.gr:6969/announce
udp://p4p.arenabg.ch:1337/announce
udp://glotorrents.pw:6969/announce
udp://eddie4.nl:6969/announce
udp://9.rarbg.me:2710/announce
udp://tracker.opentrackr.org:1337/announce
udp://tracker.zer0day.to:1337/announce
udp://9.rarbg.to:2710/announce
http://tracker.opentrackr.org:1337/announce
udp://tracker.leechers-paradise.org:6969/announce
udp://tracker.coppersurfer.tk:6969/announce
UDP://EDDIE4.NL:6969/announce
UDP://TRACKER.ZER0DAY.TO:1337/announce
UDP://TRACKER.OPENTRACKR.ORG:1337/announce
UDP://TRACKER.COPPERSURFER.TK:6969/announce
UDP://TRACKER.LEECHERS-PARADISE.ORG:6969/announce
udp://p4p.arenabg.com:1337/announce
Total Size: 712.01 MB
Files:
[DigiMaza] Code Geass Akito the Exiled 2.mkv - 712.01 MB

Description

Code Geass: Akito the Exiled 2: The Torn-Up Wyvern [EngDub] x264 Download


Quote:
The war between Euro Britannia and the European Union continues. New orders are given to the W-0 Unit. To land in the middle of the enemy territory as a diversion. The pilots of the W-0 Unit consist only of the commanding officer, Leila, the only surviving Japanese from their last battle, Akito, and the three that escaped from the Eleven ghettos and lived in the underworld, Ryou, Yukiya, and Ayano. With everyone holding their respective expectations, the operation moves forward. On the other side in Euro Britannia, Shin, who made his benefactor commit suicide with the mysterious power of “Geass”, is appointed the leader of the Knights of St. Michael. As Shin steadily advances for the sake of his own ambition, he and his subordinates in the Ashura squad are given orders to deploy. The one that lives in order to fight, and the one that fights in order to live.


..::File Specs::..
General

Format : Matroska
Format version : Version 4 / Version 2
File size : 712 MiB
Duration : 59 min 57 s
Overall bit rate : 1 660 kb/s

Video
ID : 1
Format : AVC
Format/Info : Advanced Video Codec
Format profile : [email protected]/* */
Format settings, CABAC : Yes
Format settings, ReFrames : 1 frame
Codec ID : V_MPEG4/ISO/AVC
Duration : 59 min 57 s
Bit rate : 1 466 kb/s
Width : 1 280 pixels
Height : 720 pixels
Display aspect ratio : 16:9
Frame rate mode : Constant
Frame rate : 23.976 (24000/1001) FPS
Color space : YUV
Chroma subsampling : 4:2:0
Bit depth : 8 bits
Scan type : Progressive
Bits/(Pixel*Frame) : 0.066
Stream size : 629 MiB (88%)
Default : Yes
Forced : No
Color range : Limited
Color primaries : BT.709
Transfer characteristics : BT.709
Matrix coefficients : BT.709

Audio
ID : 2
Format : AAC
Format/Info : Advanced Audio Codec
Format profile : LC
Codec ID : A_AAC
Duration : 59 min 57 s
Bit rate : 192 kb/s
Channel(s) : 2 channels
Channel positions : Front: L R
Sampling rate : 44.1 kHz
Frame rate : 43.066 FPS (1024 spf)
Compression mode : Lossy
Stream size : 82.3 MiB (12%)

..::ScreenShots::..

http://i.imgur.com/Qkf5wi0.png
http://i.imgur.com/N7o9aMn.png
http://i.imgur.com/kKBQYFb.png

================================================================
Seed Seed Seed Seed Seed Seed Seed Seed Seed Seed Seed Seed Seed
To direct download or Watch Online this file, Visit.
http://bit.ly/2qz6ATZ
Seed Seed Seed Seed Seed Seed Seed Seed Seed Seed Seed Seed Seed
================================================================

Comments: