Anime / Hentai torrents - Other torrents

Yu-Gi-Oh!: The Dark Side of Dimensions - Yu Gi Oh - Il lato oscur... torrent

Download Direct: Yu-Gi-Oh!: The Dark Side of Dimensions - Yu Gi Oh - Il lato oscur... - No Client needed
(0) (0)
Download torrent: Yu-Gi-Oh!: The Dark Side of Dimensions - Yu Gi Oh - Il lato oscur... torrent download
Torrent created: 22 Jun 2017 18:58:52
Torrent added: 25 Jun 2017 15:45:02 Report this torrent as fake!
Torrent's info hash: A13AF76033793E5EC91AC770C253BF22E47607B2
Category: Anime / Hentai / Other
Seeds: - Scraping... Last scraped ...
Leeches: -
Downloads: -
Announce(s):
Tracker S L DL
http://bigfoot1942.sektori.org:6969/announce---
http://tracker2.wasabii.com.tw:6969/announce---
http://tracker.mg64.net:6881/announce---
http://bt.artvid.ru:6969/announce---
http://open.acgtracker.com:1096/announce---
http://tracker.opentrackr.org/announce
http://announce.torrentsmd.com:6969/announce
http://tracker.trackerfix.com/announce
udp://tracker.openbittorrent.com:80/announce
udp://explodie.org:6969/announce
udp://mgtracker.org:6969/announce
udp://asnet.pw:2710/announce
udp://tracker.mgtracker.org:2710/announce
udp://tracker4.piratux.com:6969/announce
udp://tracker.trackerfix.com:80/announce
udp://tracker.pomf.se:80/announce
udp://torrent.gresille.org:80/announce
udp://tracker.x4w.co:6969/announce
udp://castradio.net:6969/announce
udp://p4p.arenabg.com:1337
udp://ipv4.tracker.harry.lu:80/announce
udp://inferno.demonoid.ooo:3389/announce
udp://tracker.sktorrent.net:6969/announce
udp://tracker.blackunicorn.xyz:6969/announce
udp://tracker.internetwarriors.net:1337/announce
udp://exodus.desync.com:6969/announce
udp://tracker.pirateparty.gr:6969/announce
udp://p4p.arenabg.ch:1337/announce
udp://glotorrents.pw:6969/announce
udp://eddie4.nl:6969/announce
udp://9.rarbg.me:2710/announce
udp://tracker.opentrackr.org:1337/announce
udp://tracker.zer0day.to:1337/announce
udp://9.rarbg.to:2710/announce
http://tracker.opentrackr.org:1337/announce
udp://tracker.leechers-paradise.org:6969/announce
udp://tracker.coppersurfer.tk:6969/announce
udp://tracker.pubt.net:2710/announce
udp://9.rarbg.com:2710/announce
Total Size: 1.91 GB
Files:
Yu Gi Oh Il lato oscuro delle dimensioni (2016).H264.ita.eng.sub.ita.iCV-MIRCrew/Yu Gi Oh Il lato oscuro delle dimensioni (2016).H264.ita.eng.sub.ita.iCV-MIRCrew.ita.srt - 131.73 KB
Yu Gi Oh Il lato oscuro delle dimensioni (2016).H264.ita.eng.sub.ita.iCV-MIRCrew/Yu Gi Oh Il lato oscuro delle dimensioni (2016).H264.ita.eng.sub.ita.iCV-MIRCrew.mkv - 1.91 GB
Yu Gi Oh Il lato oscuro delle dimensioni (2016).H264.ita.eng.sub.ita.iCV-MIRCrew/Yu Gi Oh Il lato oscuro delle dimensioni (2016).H264.ita.eng.sub.ita.iCV-MIRCrew.srt - 133 B

Description

Yu-Gi-Oh!: The Dark Side of Dimensions - Yu Gi Oh - Il lato oscuro delle dimensioni (2016).H264.Italian.English.Ac3.5.1.sub.ita.iCV-MIRCrew




NO FOUND ONLY ORIGINAL RELEASE





My release is always in double track audio italian and Original audio
for select it use VLC or dvd player home
not use wmp

Yu Gi Oh - Il lato oscuro delle dimensioni - Yu-Gi-Oh!: The Dark Side of Dimensions (2016)

PRESENTI ANCHE i SOTTOTITOLI

ESTERNI IN SRT (ita)







Titolo originale THE DARK SIDE OF DIMENSIONS
Yūgiō The Dark Side of Dimensions
Lingua originale giapponese
Paese di produzione Giappone
Anno 2016
Durata 130 min
Rapporto 16:9
Genere animazione, azione
Regia Satoshi Kuwabara
Soggetto Kazuki Takahashi
Sceneggiatura Kazuki Takahashi
Produttore Teruaki Sanematsu
Produttore esecutivo Kazuki Takahashi
Casa di produzione Konami, Gallop, Nihon Ad Systems
Distribuzione (Italia) Nexo Digital
Musiche Kazuhiro Nakamura, Shinkichi Mitsumune, Yoshihiro Ike
Storyboard Kazuki Takahashi, Satoshi Kuwabara
Art director Takashi Nakamura
Character design Kazuki Takahashi, Takahiro Kagami
Animatori Takahiro Kagami



Doppiatori italiani

Massimo Di Benedetto: Yugi Mutō/Atem
Lorenzo Scattorin: Seto Kaiba
Simone D'Andrea: Joey Wheeler
Veronica Puccio: Tea Gardner
Emanuele Ruzza: Tristan Taylor
Davide Albano: Bakura Ryō
Arturo Valli: Mokuba Kaiba
Stefano Broccoletti: Duke Devlin
Stefano Crescentini: Aigami/Diva
Silvio Anselmo: Solomon Muto
Carlo Valli: Padre di Bakura
Ludovica Bebi: Sera
Mirko Mazzanti: Mani
Mauro Gravina: Shadi Shin




Yugi Mutō ed i suoi amici sono all'ultimo anno delle scuole superiori e parlano di quello che faranno in futuro. Nel frattempo, Seto Kaiba ha commissionato uno scavo per recuperare il Puzzle del Millennio che è stato smontato e che si trova alle rovine della camera del Millennio..............



Yugi and Kaiba have a special duel that transcends dimensions.













[spoiler]
General
Unique ID : 269046920862395517933866300077823965046 (0xCA688D589D6E490F15DD05DEFB2B3776)
Complete name : Yu Gi Oh Il lato oscuro delle dimensioni (2016).H264.ita.eng.sub.ita.iCV-MIRCrew.mkv
Format : Matroska
Format version : Version 2
File size : 1.91 GiB
Duration : 2h 8mn
Overall bit rate : 2 116 Kbps
Encoded date : UTC 2017-06-16T17:42:40Z
Writing application : HandBrake 0.10.5 2016021100
Writing library : Lavf55.12.0

Video
ID : 1
Format : AVC
Format/Info : Advanced Video Codec
Format profile : [email protected]/* */
Format settings, CABAC : Yes
Format settings, ReFrames : 4 frames
Codec ID : V_MPEG4/ISO/AVC
Duration : 2h 8mn
Bit rate : 1 290 Kbps
Width : 720 pixels
Height : 384 pixels
Display aspect ratio : 1.875
Frame rate mode : Variable
Frame rate : 23.976 fps
Color space : YUV
Chroma subsampling : 4:2:0
Bit depth : 8 bits
Scan type : Progressive
Bits/(Pixel*Frame) : 0.195
Stream size : 1.12 GiB (59%)
Writing library : x264 core 142 r2479 dd79a61
Encoding settings : cabac=1 / ref=1 / deblock=1:1:1 / analyse=0x1:0x111 / me=hex / subme=2 / psy=1 / psy_rd=0.40:0.00 / mixed_ref=0 / me_range=16 / chroma_me=1 / trellis=0 / 8x8dct=0 / cqm=0 / deadzone=21,11 / fast_pskip=1 / chroma_qp_offset=0 / threads=12 / lookahead_threads=3 / sliced_threads=0 / nr=0 / decimate=1 / interlaced=0 / bluray_compat=0 / constrained_intra=0 / bframes=5 / b_pyramid=2 / b_adapt=1 / b_bias=0 / direct=1 / weightb=1 / open_gop=0 / weightp=1 / keyint=240 / keyint_min=24 / scenecut=40 / intra_refresh=0 / rc_lookahead=10 / rc=abr / mbtree=1 / bitrate=1290 / ratetol=1.0 / qcomp=0.60 / qpmin=0 / qpmax=69 / qpstep=4 / vbv_maxrate=20000 / vbv_bufsize=25000 / nal_hrd=none / filler=0 / ip_ratio=1.40 / aq=1:0.60
Default : Yes
Forced : No
Color primaries : BT.709-5, BT.1361, IEC 61966-2-4, SMPTE RP177
Transfer characteristics : BT.709-5, BT.1361
Matrix coefficients : BT.709-5, BT.1361, IEC 61966-2-4 709, SMPTE RP177

Audio #1
ID : 2
Format : AC-3
Format/Info : Audio Coding 3
Mode extension : CM (complete main)
Codec ID : A_AC3
Duration : 2h 8mn
Bit rate mode : Constant
Bit rate : 448 Kbps
Channel(s) : 6 channels
Channel positions : Front: L C R, Side: L R, LFE
Sampling rate : 48.0 KHz
Bit depth : 16 bits
Compression mode : Lossy
Delay relative to video : 1mn 5s
Stream size : 413 MiB (21%)
Title : Surround
Language : Italian
Default : Yes
Forced : No

Audio #2
ID : 3
Format : AC-3
Format/Info : Audio Coding 3
Mode extension : CM (complete main)
Codec ID : A_AC3
Duration : 2h 8mn
Bit rate mode : Constant
Bit rate : 384 Kbps
Channel(s) : 6 channels
Channel positions : Front: L C R, Side: L R, LFE
Sampling rate : 48.0 KHz
Bit depth : 16 bits
Compression mode : Lossy
Delay relative to video : 1mn 5s
Stream size : 354 MiB (18%)
Title : Surround
Language : English
Default : No
Forced : No

Text #1
ID : 4
Format : ASS
Codec ID : S_TEXT/ASS
Codec ID/Info : Advanced Sub Station Alpha
Compression mode : Lossless
Language : Italian
Default : No
Forced : No

Text #2
ID : 5
Format : ASS
Codec ID : S_TEXT/ASS
Codec ID/Info : Advanced Sub Station Alpha
Compression mode : Lossless
Language : Italian
Default : No
Forced : No

Menu
00:00:00.000 : :00:00:00.000
00:07:05.425 : :00:07:05.342
00:14:28.284 : :00:14:28.201
00:20:13.921 : :00:20:13.838
00:29:27.182 : :00:29:27.099
00:39:02.673 : :00:39:02.590
00:50:56.928 : :00:50:56.804
00:59:52.839 : :00:59:52.756
01:08:53.212 : :01:08:53.129
01:16:20.033 : :01:16:19.950
01:25:27.789 : :01:25:27.706
01:35:23.342 : :01:35:23.259
01:45:16.393 : :01:45:16:300
01:55:01.269 : :01:55:01:150
02:05:00.242 : :02:05:00:150


[/spoiler]



Comments: