Anime / Hentai torrents - Other torrents

My Hero Academia S2E13 (EngDub) 720p x264 Download torrent

Download Direct: My Hero Academia S2E13 (EngDub) 720p x264 Download - No Client needed
(0) (0)
Download torrent: My Hero Academia S2E13 (EngDub) 720p x264 Download torrent download
Torrent created: 25 Jun 2017 09:38:55
Torrent added: 25 Jun 2017 10:05:02 Report this torrent as fake!
Torrent's info hash: 212B24DFD18AECF737BC9C839B1DA88673CD2C8E
Category: Anime / Hentai / Other
Seeds: - Scraping... Last scraped ...
Leeches: -
Downloads: -
Announce(s):
Tracker S L DL
http://bigfoot1942.sektori.org:6969/announce---
http://tracker2.wasabii.com.tw:6969/announce---
http://tracker.mg64.net:6881/announce---
http://bt.artvid.ru:6969/announce---
http://open.acgtracker.com:1096/announce---
http://tracker.opentrackr.org/announce
http://announce.torrentsmd.com:6969/announce
http://tracker.trackerfix.com/announce
udp://tracker.openbittorrent.com:80/announce
udp://explodie.org:6969/announce
udp://mgtracker.org:6969/announce
udp://asnet.pw:2710/announce
udp://tracker.mgtracker.org:2710/announce
udp://tracker4.piratux.com:6969/announce
udp://tracker.trackerfix.com:80/announce
udp://tracker.pomf.se:80/announce
udp://torrent.gresille.org:80/announce
udp://tracker.x4w.co:6969/announce
udp://castradio.net:6969/announce
udp://p4p.arenabg.com:1337
udp://ipv4.tracker.harry.lu:80/announce
udp://inferno.demonoid.ooo:3389/announce
udp://tracker.sktorrent.net:6969/announce
udp://tracker.blackunicorn.xyz:6969/announce
udp://tracker.internetwarriors.net:1337/announce
udp://exodus.desync.com:6969/announce
udp://tracker.pirateparty.gr:6969/announce
udp://p4p.arenabg.ch:1337/announce
udp://glotorrents.pw:6969/announce
udp://eddie4.nl:6969/announce
udp://9.rarbg.me:2710/announce
udp://tracker.opentrackr.org:1337/announce
udp://tracker.zer0day.to:1337/announce
udp://9.rarbg.to:2710/announce
http://tracker.opentrackr.org:1337/announce
udp://tracker.leechers-paradise.org:6969/announce
udp://tracker.coppersurfer.tk:6969/announce
UDP://EDDIE4.NL:6969/announce
UDP://TRACKER.ZER0DAY.TO:1337/announce
UDP://TRACKER.OPENTRACKR.ORG:1337/announce
UDP://TRACKER.COPPERSURFER.TK:6969/announce
UDP://TRACKER.LEECHERS-PARADISE.ORG:6969/announce
udp://p4p.arenabg.com:1337/announce
Total Size: 246.92 MB
Files:
(DigiMaza.com)My Hero Academia 2nd Season Episode 13.mkv - 246.92 MB

Description

My Hero Academia S2E13 (EngDub) 720p x264 Download


Quote:
At UA Academy, not even a violent attack can disrupt their most prestigious event: the school sports festival. Renowned across Japan, this festival is an opportunity for aspiring heroes to showcase their abilities, both to the public and potential recruiters.
However, the path to glory is never easy, especially for Izuku Midoriya—whose quirk possesses great raw power but is also cripplingly inefficient. Pitted against his talented classmates, such as the fire and ice wielding Shouto Todoroki, Izuku must utilize his sharp wits and master his surroundings to achieve victory and prove to the world his worth.


..::File Specs::..
General
Format : Matroska
Format version : Version 4 / Version 2
File size : 247 MiB
Duration : 23 min 58 s
Overall bit rate : 1 440 kb/s

Video
ID : 1
Format : AVC
Format/Info : Advanced Video Codec
Format profile : [email protected]/* */
Format settings, CABAC : Yes
Format settings, ReFrames : 1 frame
Codec ID : V_MPEG4/ISO/AVC
Duration : 23 min 58 s
Bit rate : 1 246 kb/s
Width : 1 280 pixels
Height : 720 pixels
Display aspect ratio : 16:9
Frame rate mode : Constant
Frame rate : 23.976 (24000/1001) FPS
Color space : YUV
Chroma subsampling : 4:2:0
Bit depth : 8 bits
Scan type : Progressive
Bits/(Pixel*Frame) : 0.056
Stream size : 214 MiB (87%)
Default : Yes
Forced : No
Color range : Limited
Color primaries : BT.709

Audio
ID : 2
Format : AAC
Format/Info : Advanced Audio Codec
Format profile : LC
Codec ID : A_AAC
Duration : 23 min 58 s
Bit rate : 192 kb/s
Channel(s) : 2 channels
Channel positions : Front: L R
Sampling rate : 44.1 kHz
Frame rate : 43.066 FPS (1024 spf)
Compression mode : Lossy
Stream size : 32.9 MiB (13%)
Language : English

..::ScreenShots::..

https://s24.postimg.org/rjsfy8hn9/vlcsnap-2017-06-24-23h34m55s198.png
https://s24.postimg.org/3u309jj9x/vlcsnap-2017-06-24-23h35m05s132.png
https://s24.postimg.org/6pg3gen9x/vlcsnap-2017-06-24-23h35m10s914.png

================================================================
Seed Seed Seed Seed Seed Seed Seed Seed Seed Seed Seed Seed Seed
To direct download this file, Visit.
www.DigiMaza.com
================================================================


Comments: