Anime / Hentai torrents - Other torrents

Tsuki ga Kirei S01E07 (EngDub) 720p x264 Download torrent

Download Direct: Tsuki ga Kirei S01E07 (EngDub) 720p x264 Download - No Client needed
(0) (0)
Download torrent: Tsuki ga Kirei S01E07 (EngDub) 720p x264 Download torrent download
Torrent created: 23 Jun 2017 11:56:09
Torrent added: 23 Jun 2017 12:25:02 Report this torrent as fake!
Torrent's info hash: 933AACF018F86336946FB812AB175E29D305EC78
Category: Anime / Hentai / Other
Seeds: - Scraping... Last scraped ...
Leeches: -
Downloads: -
Announce(s):
Tracker S L DL
http://bigfoot1942.sektori.org:6969/announce---
http://tracker2.wasabii.com.tw:6969/announce---
http://tracker.mg64.net:6881/announce---
http://bt.artvid.ru:6969/announce---
http://open.acgtracker.com:1096/announce---
http://tracker.opentrackr.org/announce
http://announce.torrentsmd.com:6969/announce
http://tracker.trackerfix.com/announce
udp://tracker.openbittorrent.com:80/announce
udp://explodie.org:6969/announce
udp://mgtracker.org:6969/announce
udp://asnet.pw:2710/announce
udp://tracker.mgtracker.org:2710/announce
udp://tracker4.piratux.com:6969/announce
udp://tracker.trackerfix.com:80/announce
udp://tracker.pomf.se:80/announce
udp://torrent.gresille.org:80/announce
udp://tracker.x4w.co:6969/announce
udp://castradio.net:6969/announce
udp://p4p.arenabg.com:1337
udp://ipv4.tracker.harry.lu:80/announce
udp://inferno.demonoid.ooo:3389/announce
udp://tracker.sktorrent.net:6969/announce
udp://tracker.blackunicorn.xyz:6969/announce
udp://tracker.internetwarriors.net:1337/announce
udp://exodus.desync.com:6969/announce
udp://tracker.pirateparty.gr:6969/announce
udp://p4p.arenabg.ch:1337/announce
udp://glotorrents.pw:6969/announce
udp://eddie4.nl:6969/announce
udp://9.rarbg.me:2710/announce
udp://tracker.opentrackr.org:1337/announce
udp://tracker.zer0day.to:1337/announce
udp://9.rarbg.to:2710/announce
http://tracker.opentrackr.org:1337/announce
udp://tracker.leechers-paradise.org:6969/announce
udp://tracker.coppersurfer.tk:6969/announce
UDP://EDDIE4.NL:6969/announce
UDP://TRACKER.ZER0DAY.TO:1337/announce
UDP://TRACKER.OPENTRACKR.ORG:1337/announce
UDP://TRACKER.COPPERSURFER.TK:6969/announce
UDP://TRACKER.LEECHERS-PARADISE.ORG:6969/announce
udp://p4p.arenabg.com:1337/announce
Total Size: 240.94 MB
Files:
[DigiMaza] Tsuki ga Kirei S01E07.mkv - 240.94 MB

Description

As the Moon, So Beautiful S01E07 (EngDub) 720p x264 Download

Quote:
Kotarou Azumi and Akane Mizuno became third year students at junior high school and are classmates for the first time. These two, along with fellow classmates, Chinatsu Nishio and Takumi Hira, relate to their peers through mutual understandings and feelings. As their final year at junior high school progresses, the group overcome their challenges to mature and become aware of changes in themselves.


..::File Specs::..
General

Format : Matroska
Format version : Version 4 / Version 2
File size : 241 MiB
Duration : 24 min 19 s
Overall bit rate : 1 384 kb/s

Video
ID : 1
Format : AVC
Format/Info : Advanced Video Codec
Format profile : [email protected]/* */
Format settings, CABAC : Yes
Format settings, ReFrames : 1 frame
Codec ID : V_MPEG4/ISO/AVC
Duration : 24 min 19 s
Bit rate : 1 190 kb/s
Width : 1 280 pixels
Height : 720 pixels
Display aspect ratio : 16:9
Frame rate mode : Constant
Frame rate : 23.976 (24000/1001) FPS
Color space : YUV
Chroma subsampling : 4:2:0
Bit depth : 8 bits
Scan type : Progressive
Bits/(Pixel*Frame) : 0.054
Stream size : 207 MiB (86%)
Default : Yes
Forced : No
Color range : Limited
Color primaries : BT.709
Transfer characteristics : BT.709
Matrix coefficients : BT.709

Audio
ID : 2
Format : AAC
Format/Info : Advanced Audio Codec
Format profile : LC
Codec ID : A_AAC
Duration : 24 min 19 s
Bit rate : 192 kb/s
Channel(s) : 2 channels
Channel positions : Front: L R
Sampling rate : 44.1 kHz
Frame rate : 43.066 FPS (1024 spf)
Compression mode : Lossy
Stream size : 33.4 MiB (14%)

..::ScreenShots::..

https://s21.postimg.org/4hzv5a28n/vlcsnap-2017-06-23-01h53m47s043.png
https://s21.postimg.org/jrzqcgxqv/vlcsnap-2017-06-23-01h53m55s817.png
https://s21.postimg.org/a8q1j0a8n/vlcsnap-2017-06-23-01h54m00s156.png

================================================================
Seed Seed Seed Seed Seed Seed Seed Seed Seed Seed Seed Seed Seed
To direct download or Watch Online this file, Visit.
http://bit.ly/2qz6ATZ
Seed Seed Seed Seed Seed Seed Seed Seed Seed Seed Seed Seed Seed
================================================================


Comments: