Anime / Hentai torrents - Other torrents

Kiseijuu: Sei no Kakuritsu (EngDub) 720p x264 Download torrent

Download Direct: Kiseijuu: Sei no Kakuritsu (EngDub) 720p x264 Download - No Client needed
(0) (0)
Download torrent: Kiseijuu: Sei no Kakuritsu (EngDub) 720p x264 Download torrent download
Torrent created: 22 Jun 2017 10:32:54
Torrent added: 22 Jun 2017 11:05:02 Report this torrent as fake!
Torrent's info hash: D7529C955DCEA98F89406A091A091BCDF99790CF
Category: Anime / Hentai / Other
Seeds: - Scraping... Last scraped ...
Leeches: -
Downloads: -
Announce(s):
Tracker S L DL
http://bigfoot1942.sektori.org:6969/announce---
http://tracker2.wasabii.com.tw:6969/announce---
http://tracker.mg64.net:6881/announce---
http://bt.artvid.ru:6969/announce---
http://open.acgtracker.com:1096/announce---
http://tracker.opentrackr.org/announce
http://announce.torrentsmd.com:6969/announce
http://tracker.trackerfix.com/announce
udp://tracker.openbittorrent.com:80/announce
udp://explodie.org:6969/announce
udp://mgtracker.org:6969/announce
udp://asnet.pw:2710/announce
udp://tracker.mgtracker.org:2710/announce
udp://tracker4.piratux.com:6969/announce
udp://tracker.trackerfix.com:80/announce
udp://tracker.pomf.se:80/announce
udp://torrent.gresille.org:80/announce
udp://tracker.x4w.co:6969/announce
udp://castradio.net:6969/announce
udp://p4p.arenabg.com:1337
udp://ipv4.tracker.harry.lu:80/announce
udp://inferno.demonoid.ooo:3389/announce
udp://tracker.sktorrent.net:6969/announce
udp://tracker.blackunicorn.xyz:6969/announce
udp://tracker.internetwarriors.net:1337/announce
udp://exodus.desync.com:6969/announce
udp://tracker.pirateparty.gr:6969/announce
udp://p4p.arenabg.ch:1337/announce
udp://glotorrents.pw:6969/announce
udp://eddie4.nl:6969/announce
udp://9.rarbg.me:2710/announce
udp://tracker.opentrackr.org:1337/announce
udp://tracker.zer0day.to:1337/announce
udp://9.rarbg.to:2710/announce
http://tracker.opentrackr.org:1337/announce
udp://tracker.leechers-paradise.org:6969/announce
udp://tracker.coppersurfer.tk:6969/announce
UDP://EDDIE4.NL:6969/announce
UDP://TRACKER.ZER0DAY.TO:1337/announce
UDP://TRACKER.OPENTRACKR.ORG:1337/announce
UDP://TRACKER.COPPERSURFER.TK:6969/announce
UDP://TRACKER.LEECHERS-PARADISE.ORG:6969/announce
udp://p4p.arenabg.com:1337/announce
Total Size: 3 GB
Files:
[DigiMaza] Parasyte -the maxim-/[DigiMaza.com] Parasyte_the_maxim_-_16.mkv - 169.51 MB
[DigiMaza] Parasyte -the maxim-/[DigiMaza.com] Parasyte_the_maxim_-_07.mkv - 161.35 MB
[DigiMaza] Parasyte -the maxim-/[DigiMaza.com] Parasyte_the_maxim_-_01.mkv - 141.27 MB
[DigiMaza] Parasyte -the maxim-/[DigiMaza.com] Parasyte_the_maxim_-_11.mkv - 137.34 MB
[DigiMaza] Parasyte -the maxim-/[DigiMaza.com] Parasyte_the_maxim_-_10.mkv - 135.11 MB
[DigiMaza] Parasyte -the maxim-/[DigiMaza.com] Parasyte_the_maxim_-_22.mkv - 134.17 MB
[DigiMaza] Parasyte -the maxim-/[DigiMaza.com] Parasyte_the_maxim_-_04.mkv - 133.34 MB
[DigiMaza] Parasyte -the maxim-/[DigiMaza.com] Parasyte_the_maxim_-_23.mkv - 131.5 MB
[DigiMaza] Parasyte -the maxim-/[DigiMaza.com] Parasyte_the_maxim_-_05.mkv - 130.85 MB
[DigiMaza] Parasyte -the maxim-/[DigiMaza.com] Parasyte_the_maxim_-_15.mkv - 128.59 MB
[DigiMaza] Parasyte -the maxim-/[DigiMaza.com] Parasyte_the_maxim_-_02.mkv - 126.91 MB
[DigiMaza] Parasyte -the maxim-/[DigiMaza.com] Parasyte_the_maxim_-_18.mkv - 125.53 MB
[DigiMaza] Parasyte -the maxim-/[DigiMaza.com] Parasyte_the_maxim_-_17.mkv - 122.12 MB
[DigiMaza] Parasyte -the maxim-/[DigiMaza.com] Parasyte_the_maxim_-_09.mkv - 121.79 MB
[DigiMaza] Parasyte -the maxim-/[DigiMaza.com] Parasyte_the_maxim_-_24.mkv - 121.13 MB
[DigiMaza] Parasyte -the maxim-/[DigiMaza.com] Parasyte_the_maxim_-_06.mkv - 120.54 MB
[DigiMaza] Parasyte -the maxim-/[DigiMaza.com] Parasyte_the_maxim_-_21.mkv - 120.11 MB
[DigiMaza] Parasyte -the maxim-/[DigiMaza.com] Parasyte_the_maxim_-_14.mkv - 119.98 MB
[DigiMaza] Parasyte -the maxim-/[DigiMaza.com] Parasyte_the_maxim_-_13.mkv - 118.55 MB
[DigiMaza] Parasyte -the maxim-/[DigiMaza.com] Parasyte_the_maxim_-_08.mkv - 118.51 MB
[DigiMaza] Parasyte -the maxim-/[DigiMaza.com] Parasyte_the_maxim_-_20.mkv - 117.02 MB
[DigiMaza] Parasyte -the maxim-/[DigiMaza.com] Parasyte_the_maxim_-_12.mkv - 116.21 MB
[DigiMaza] Parasyte -the maxim-/[DigiMaza.com] Parasyte_the_maxim_-_03.mkv - 112.5 MB
[DigiMaza] Parasyte -the maxim-/[DigiMaza.com] Parasyte_the_maxim_-_19.mkv - 110.44 MB
[DigiMaza] Parasyte -the maxim-/Read Me.txt - 556 B

Description

Parasyte -the maxim- [Kiseijuu: Sei no Kakuritsu] (EngDub) 720p x264 Download


Quote:
IShinichi Izumi is a normal high school boy whose right hand has become infected with an alien parasite that names itself "Migi" ("right"). Migi is the first parasite to develop a symbiotic relationship with its host, as he and Shinichi slowly develop a grudging friendship. Migi isn't the only Parasite on earth, however, and as cases of Parasites killing humans begin to emerge, humans seek to kill off Parasites. Shinichi and Migi find themselves caught in between these two sides of the struggle over planet earth.


..::File Specs::..
General

Format : Matroska
Format version : Version 4 / Version 2
File size : 141 MiB
Duration : 22 min 51 s
Overall bit rate : 864 kb/s

Video
ID : 1
Format : AVC
Format/Info : Advanced Video Codec
Format profile : High [email protected]/* */
Format settings, CABAC : Yes
Format settings, ReFrames : 16 frames
Codec ID : V_MPEG4/ISO/AVC
Duration : 22 min 51 s
Bit rate : 757 kb/s
Width : 1 280 pixels
Height : 720 pixels
Display aspect ratio : 16:9
Frame rate mode : Variable
Frame rate : 23.976 FPS
Color space : YUV
Chroma subsampling : 4:2:0
Bit depth : 10 bits
Scan type : Progressive
Bits/(Pixel*Frame) : 0.034
Stream size : 124 MiB (88%)
Language : English

Audio

Format : AAC
Format/Info : Advanced Audio Codec
Format profile : Main
Codec ID : A_AAC
Duration : 22 min 50 s
Bit rate : 93.4 kb/s
Channel(s) : 2 channels
Channel positions : Front: L R
Sampling rate : 48.0 kHz
Frame rate : 46.875 FPS (1024 spf)
Compression mode : Lossy
Stream size : 15.3 MiB (11%)
Language : English

Text
ID : 5
Format : ASS
Codec ID : S_TEXT/ASS
Codec ID/Info : Advanced Sub Station Alpha
Duration : 22 min 46 s
Bit rate : 1 917 b/s
Count of elements : 2634
Compression mode : Lossless
Stream size : 320 KiB (0%)
Title : Full Subtitles
Language : English

..::ScreenShots::..

https://s7.postimg.org/ds6ig5k63/vlcsnap-2017-06-22-00h12m14s468.png
https://s7.postimg.org/8usxv1i6z/vlcsnap-2017-06-22-00h12m39s942.png
https://s7.postimg.org/bdj89gtaz/vlcsnap-2017-06-22-00h13m17s728.png

================================================================
Seed Seed Seed Seed Seed Seed Seed Seed Seed Seed Seed Seed Seed
To direct download or Watch Online this file, Visit.
http://bit.ly/2qz6ATZ
Seed Seed Seed Seed Seed Seed Seed Seed Seed Seed Seed Seed Seed
================================================================

Comments: