Movies torrents - Other torrents

Guardians of the Galaxy Vol-2 2017 .720p HD-TS x264-24HD torrent

Download Direct: Guardians of the Galaxy Vol-2 2017 .720p HD-TS x264-24HD - No Client needed
(0) (0)
Download torrent: Guardians of the Galaxy Vol-2 2017 .720p HD-TS x264-24HD torrent download
Torrent created: 19 Jun 2017 05:20:04
Torrent added: 19 Jun 2017 05:45:02 Report this torrent as fake!
Torrent's info hash: 5497B2F2E54F14B364A808D57D69B1F90EC991DB
Category: Movies / Other
Seeds: - Scraping... Last scraped 16 h ago
Leeches: -
Downloads: -
Announce(s):
Tracker S L DL
http://bigfoot1942.sektori.org:6969/announce---
http://tracker2.wasabii.com.tw:6969/announce---
http://tracker.mg64.net:6881/announce---
http://bt.artvid.ru:6969/announce---
http://open.acgtracker.com:1096/announce---
http://tracker.opentrackr.org/announce
http://announce.torrentsmd.com:6969/announce
http://tracker.trackerfix.com/announce
udp://tracker.openbittorrent.com:80/announce
udp://explodie.org:6969/announce
udp://mgtracker.org:6969/announce
udp://asnet.pw:2710/announce
udp://tracker.mgtracker.org:2710/announce
udp://tracker4.piratux.com:6969/announce
udp://tracker.trackerfix.com:80/announce
udp://tracker.pomf.se:80/announce
udp://torrent.gresille.org:80/announce
udp://tracker.x4w.co:6969/announce
udp://castradio.net:6969/announce
udp://p4p.arenabg.com:1337
udp://ipv4.tracker.harry.lu:80/announce
udp://inferno.demonoid.ooo:3389/announce
udp://tracker.sktorrent.net:6969/announce
udp://tracker.blackunicorn.xyz:6969/announce
udp://tracker.internetwarriors.net:1337/announce
udp://exodus.desync.com:6969/announce
udp://tracker.pirateparty.gr:6969/announce
udp://p4p.arenabg.ch:1337/announce
udp://glotorrents.pw:6969/announce
udp://eddie4.nl:6969/announce
udp://9.rarbg.me:2710/announce
udp://tracker.opentrackr.org:1337/announce
udp://tracker.zer0day.to:1337/announce
udp://9.rarbg.to:2710/announce
http://tracker.opentrackr.org:1337/announce
udp://tracker.leechers-paradise.org:6969/announce
udp://tracker.coppersurfer.tk:6969/announce
udp://tracker.ilibr.org:80/announce
udp://p4p.arenabg.com:1337/announce
udp://9.rarbg.com:2710/announce
udp://tracker.ilibr.org:6969/announce
Total Size: 2.92 GB
Files:
Guardians of the Galaxy Vol-2 2017 .720p HD-TS x264-24HD/Guardians of the Galaxy Vol-2 2017 720p HD-TS x264-24HD.mkv - 2.92 GB

Description

Guardians.of.the.Galaxy.Vol-2.2017.720p.HD-TS.x264-24HD



Guardians of the Galaxy Vol-2 2017 720p HD-TS x264-24HD

Source: V- Russian1080p A- FM
All Credit Goes to tourn171 for syncing Audio on it.

Format                      : Matroska
Format version              : Version 4 / Version 2
File size                   : 2.92 GiB
Duration                    : 2 h 7 min
Overall bit rate mode       : Variable
Overall bit rate            : 3 274 kb/s
Encoded date                : UTC 2017-06-16 19:10:54
Writing application         : mkvmerge v9.9.0 ('Pick Up') 64bit
Writing library             : libebml v1.3.4 + libmatroska v1.4.5

Video
ID                          : 1
Format                      : AVC
Format/Info                 : Advanced Video Codec
Format profile              : [email protected]/* */
Format settings, CABAC      : Yes
Format settings, ReFrames   : 4 frames
Codec ID                    : V_MPEG4/ISO/AVC
Duration                    : 2 h 7 min
Bit rate mode               : Variable
Bit rate                    : 3 080 kb/s
Maximum bit rate            : 62.5 Mb/s
Width                       : 1 280 pixels
Height                      : 508 pixels
Display aspect ratio        : 2.520
Frame rate mode             : Constant
Frame rate                  : 29.970 (30000/1001) FPS
Color space                 : YUV
Chroma subsampling          : 4:2:0
Bit depth                   : 8 bits
Scan type                   : Progressive
Bits/(Pixel*Frame)          : 0.158
Stream size                 : 2.75 GiB (94%)
Default                     : Yes
Forced                      : No
Color range                 : Full
Color primaries             : BT.709
Transfer characteristics    : BT.709
Matrix coefficients         : BT.709

Audio
ID                          : 2
Format                      : MPEG Audio
Format version              : Version 1
Format profile              : Layer 3
Codec ID                    : A_MPEG/L3
Codec ID/Hint               : MP3
Duration                    : 2 h 7 min
Bit rate mode               : Constant
Bit rate                    : 192 kb/s
Channel(s)                  : 2 channels
Sampling rate               : 44.1 kHz
Frame rate                  : 38.281 FPS (1152 spf)
Compression mode            : Lossy
Delay relative to video     : 21 ms
Stream size                 : 176 MiB (6%)
Writing library             : LAME3.99.5
Default                     : Yes
Forced                      : No

Screens:




Comments: