Series / TV Shows torrents - BBC torrents

Bucket S01E02 torrent

Download Direct: Bucket S01E02 - No Client needed
(0) (0)
Download torrent: Bucket S01E02 torrent download
Torrent created: 21 Apr 2017 12:31:08
Torrent added: 21 Apr 2017 13:45:02 Report this torrent as fake!
Torrent's info hash: 2ED896C963B9861C86DD27565D1A9D4642ACC24C
Category: Series / TV Shows / BBC
Seeds: 1 Scraping... Last scraped 21 h ago
Leeches: 1
Downloads: 59
Announce(s):
Tracker S L DL
udp://tracker.coppersurfer.tk:6969/announce---
udp://9.rarbg.me:2780/announce---
udp://tracker.leechers-paradise.org:6969/announce---
udp://p4p.arenabg.com:1337/announce1159
udp://tracker.piratepublic.com:1337/announce---
udp://tracker.opentrackr.org:1337/announce
udp://eddie4.nl:6969/announce
udp://explodie.org:6969/annouce
Total Size: 438.22 MB
Files:
Bucket S01E02/Bucket S01E02.mp4 - 437.26 MB
Bucket S01E02/Bucket S01E02.jpg - 947.47 KB
Bucket S01E02/About this torrent.txt - 1.37 KB
Bucket S01E02/Bucket S01E02.srt - 30.12 KB
Bucket S01E02/Torrent Downloaded From ExtraTorrent.cc.txt - 0 B
Bucket S01E02/Torrent Downloaded From Katcr.co - Kickasstorrents.txt - 72 B

Description

Bucket S01E02



Mim has a plan to fund her bucket list by selling the contents of a time capsule buried at her alma mater, Cambridge, but instead Fran learns a secret about Mim's past.



(with soft subtitles)



First broadcast: 20 April 2017

Duration: 25 minutes



eedb14cc8b2a7fa91a77ecca1ce11c2c.md.jpg



Media info:-

General

Format : MPEG-4

Format profile : Base Media

Codec ID : isom (isom/iso2/avc1/mp41)

File size : 437 MiB

Duration : 25mn 32s

Overall bit rate mode : Variable

Overall bit rate : 2 394 Kbps

Writing application : Lavf57.25.100



Video

ID : 1

Format : AVC

Format/Info : Advanced Video Codec

Format profile : [email protected]/* */

Format settings, CABAC : Yes

Format settings, ReFrames : 2 frames

Codec ID : avc1

Codec ID/Info : Advanced Video Coding

Duration : 25mn 32s

Bit rate mode : Variable

Bit rate : 2 294 Kbps

Maximum bit rate : 3 500 Kbps

Width : 1 280 pixels

Height : 720 pixels

Display aspect ratio : 16:9

Frame rate mode : Constant

Frame rate : 25.000 fps

Color space : YUV

Chroma subsampling : 4:2:0

Bit depth : 8 bits

Scan type : Progressive

Bits/(Pixel*Frame) : 0.100

Stream size : 419 MiB (96%)



Audio

ID : 2

Format : AAC

Format/Info : Advanced Audio Codec

Format profile : LC

Codec ID : 40

Duration : 25mn 32s

Bit rate mode : Constant

Bit rate : 93.5 Kbps

Channel(s) : 2 channels

Channel positions : Front: L R

Sampling rate : 48.0 KHz

Frame rate : 46.875 fps (1024 spf)

Compression mode : Lossy

Stream size : 17.1 MiB (4%)

Comments: