Movies torrents - Other torrents

Cruel.Summer.2016.HDRip.DD2.0.x264-BDP[PRiME] torrent

Download Direct: Cruel.Summer.2016.HDRip.DD2.0.x264-BDP[PRiME] - No Client needed
(0) (0)
Download torrent: Cruel.Summer.2016.HDRip.DD2.0.x264-BDP[PRiME] torrent download
Torrent created: 20 Mar 2017 23:22:06
Torrent added: 20 Mar 2017 23:45:01 Report this torrent as fake!
Torrent's info hash: 6DE548532CB91CD31DA5640ACD83EA2BE2017EE8
Category: Movies / Other
Seeds: 3 Scraping... Last scraped 4 h ago
Leeches: 1
Downloads: 47
Announce(s):
Tracker S L DL
http://explodie.org:6969/announce---
http://tracker.tfile.me/announce---
http://bigfoot1942.sektori.org:6969/announce---
udp://eddie4.nl:6969/announce---
udp://tracker4.piratux.com:6969/announce---
udp://tracker.trackerfix.com:80/announce
udp://tracker.pomf.se:80/announce
udp://torrent.gresille.org:80/announce
udp://9.rarbg.me:2710/announce
udp://tracker.leechers-paradise.org:6969/announce
udp://glotorrents.pw:6969/announce
udp://tracker.opentrackr.org:1337/announce
udp://tracker.blackunicorn.xyz:6969/announce
udp://tracker.internetwarriors.net:1337/announce
udp://p4p.arenabg.ch:1337/announce
udp://tracker.coppersurfer.tk:6969/announce
udp://9.rarbg.to:2710/announce
udp://tracker.openbittorrent.com:80/announce
udp://explodie.org:6969/announce
udp://9.rarbg.com:2710/announce
udp://p4p.arenabg.com:1337/announce
udp://ipv4.tracker.harry.lu:80/announce
udp://tracker.zer0day.to:1337/announce
udp://tracker.ilibr.org:80/announce
udp://tracker.ilibr.org:6969/announce
Total Size: 687 MB
Files:
Cruel.Summer.2016.HDRip.DD2.0.x264-BDP[PRiME]/Cruel.Summer.2016.HDRip.DD2.0.x264-BDP[PRiME].mkv - 687 MB
Cruel.Summer.2016.HDRip.DD2.0.x264-BDP[PRiME]/Please Support!! Read More!!!.txt - 232 B
Cruel.Summer.2016.HDRip.DD2.0.x264-BDP[PRiME]/Torrent Downloaded From 1337x.to.txt - 69 B
Cruel.Summer.2016.HDRip.DD2.0.x264-BDP[PRiME]/Torrent Downloaded From ExtraTorrent.cc.txt - 446 B

Description


Cruel.Summer.2016.HDRip.DD2.0.x264-BDP[PRiME]

ImDb: http://www.imdb.com/title/tt3071192



Complete name : Cruel.Summer.2016.HDRip.DD2.0.x264-BDP[PRiME].mkv
Format : Matroska
Format version : Version 4 / Version 2
File size : 687 MiB
Duration : 1 h 19 min
Overall bit rate : 1 202 kb/s
Encoded date : UTC 2017-03-20 21:06:09
Writing application : mkvmerge v7.8.0 ('River Man') 32bit built on Mar 27 2015 16:18:02
Writing library : libebml v1.3.1 + libmatroska v1.4.2 / Lavf57.46.100
COMPOSER : Encoder *BDP*

Video
ID : 1
Format : AVC
Format/Info : Advanced Video Codec
Format profile : [email protected]/* */
Format settings, CABAC : Yes
Format settings, ReFrames : 5 frames
Codec ID : V_MPEG4/ISO/AVC
Duration : 1 h 19 min
Bit rate : 1 074 kb/s
Width : 720 pixels
Height : 304 pixels
Display aspect ratio : 2.35:1
Frame rate mode : Constant
Frame rate : 24.000 FPS
Standard : Component
Color space : YUV
Chroma subsampling : 4:2:0
Bit depth : 8 bits
Scan type : Progressive
Bits/(Pixel*Frame) : 0.204
Stream size : 595 MiB (87%)
Writing library : x264 core 148 r2643
Encoding settings : cabac=1 / ref=5 / deblock=1:-3:-3 / analyse=0x3:0x133 / me=esa / subme=7 / psy=1 / psy_rd=1.00:0.00 / mixed_ref=1 / me_range=16 / chroma_me=1 / trellis=1 / 8x8dct=1 / cqm=0 / deadzone=21,11 / fast_pskip=1 / chroma_qp_offset=-2 / threads=9 / lookahead_threads=1 / sliced_threads=0 / nr=0 / decimate=1 / interlaced=0 / bluray_compat=0 / constrained_intra=0 / bframes=3 / b_pyramid=0 / b_adapt=1 / b_bias=0 / direct=0 / weightb=1 / open_gop=0 / weightp=2 / keyint=239 / keyint_min=23 / scenecut=40 / intra_refresh=0 / rc_lookahead=40 / rc=abr / mbtree=1 / bitrate=1074 / ratetol=1.0 / qcomp=0.60 / qpmin=10 / qpmax=69 / qpstep=4 / vbv_maxrate=62500 / vbv_bufsize=62500 / nal_hrd=none / filler=0 / ip_ratio=1.40 / aq=3:1.00
Default : Yes
Forced : No
Color range : Limited
Color primaries : BT.709
Transfer characteristics : BT.709
Matrix coefficients : BT.709

Audio
ID : 2
Format : AC-3
Format/Info : Audio Coding 3
Mode extension : CM (complete main)
Format settings, Endianness : Big
Codec ID : A_AC3
Duration : 1 h 19 min
Bit rate mode : Constant
Bit rate : 160 kb/s
Channel(s) : 2 channels
Channel positions : Front: L R
Sampling rate : 48.0 kHz
Frame rate : 31.250 FPS (1536 spf)
Compression mode : Lossy
Stream size : 91.5 MiB (13%)
Writing library : Lavc57.51.100 ac3_fixed
Default : Yes
Forced : No




Click Image To View Full Size


Click To View Screenshot
Click To View Screenshot
Click To View Screenshot

Comments: