Series / TV Shows torrents - Other torrents

100 Things to Do Before High School.S01E01-Special.1.720p.HDTV.x2... torrent

Download Direct: 100 Things to Do Before High School.S01E01-Special.1.720p.HDTV.x2... - No Client needed
(0) (0)
Download torrent: 100 Things to Do Before High School.S01E01-Special.1.720p.HDTV.x2... torrent download
Torrent created: 20 Mar 2017 20:26:58
Torrent added: 20 Mar 2017 20:45:03 Report this torrent as fake!
Torrent's info hash: 3D4D8F955D8848FA6F65BC3AB603D859F1518D03
Category: Series / TV Shows / Other
Seeds: - Scraping... Last scraped 7 h ago
Leeches: -
Downloads: -
Announce(s):
Tracker S L DL
http://explodie.org:6969/announce---
http://tracker.tfile.me/announce---
http://bigfoot1942.sektori.org:6969/announce---
udp://eddie4.nl:6969/announce---
udp://tracker4.piratux.com:6969/announce---
udp://tracker.trackerfix.com:80/announce
udp://tracker.pomf.se:80/announce
udp://torrent.gresille.org:80/announce
udp://9.rarbg.me:2710/announce
udp://tracker.leechers-paradise.org:6969/announce
udp://glotorrents.pw:6969/announce
udp://tracker.opentrackr.org:1337/announce
udp://tracker.blackunicorn.xyz:6969/announce
udp://tracker.internetwarriors.net:1337/announce
udp://p4p.arenabg.ch:1337/announce
udp://tracker.coppersurfer.tk:6969/announce
udp://9.rarbg.to:2710/announce
udp://tracker.openbittorrent.com:80/announce
udp://tracker.zer0day.to:1337/announce
Total Size: 410.02 MB
Files:
100 Things to Do Before High School.S01E01-Special.1.720p.HDTV.x264.Tr.Sc/100 Things to Do Before High School.S01E01-Special.1.720p.HDTV.x264.Tr.Sc.mkv - 410.02 MB
100 Things to Do Before High School.S01E01-Special.1.720p.HDTV.x264.Tr.Sc/100 Things to Do Before High School.S01E01-Special.1.720p.HDTV.x264.Tr.Sc.txt - 3.88 KB

Description

Code:
ormat : Matroska
Format version : Version 4 / Version 2
File size : 410 MiB
Duration : 21mn 27s
Overall bit rate : 2 671 Kbps
Movie name : 100-01
Writing library : libebml v1.3.3 + libmatroska v1.4.4

Video
ID : 1
Format : AVC
Format/Info : Advanced Video Codec
Format profile : [email protected]/* */
Format settings, CABAC : Yes
Format settings, ReFrames : 4 frames
Codec ID : V_MPEG4/ISO/AVC
Duration : 21mn 27s
Bit rate : 2 500 Kbps
Width : 1 280 pixels
Height : 720 pixels
Display aspect ratio : 16:9
Frame rate mode : Variable
Frame rate : 25.000 fps
Color space : YUV
Chroma subsampling : 4:2:0
Bit depth : 8 bits
Scan type : Progressive
Bits/(Pixel*Frame) : 0.109
Stream size : 384 MiB (94%)
Writing library : x264 core 148 r2643 5c65704
Encoding settings : cabac=1 / ref=1 / deblock=1:0:0 / analyse=0x3:0x113 / me=hex / subme=2 / psy=1 / psy_rd=1,00:0,00 / mixed_ref=0 / me_range=16 / chroma_me=1 / trellis=0 / 8x8dct=1 / cqm=0 / deadzone=21,11 / fast_pskip=1 / chroma_qp_offset=0 / threads=6 / lookahead_threads=2 / sliced_threads=0 / nr=0 / decimate=1 / interlaced=0 / bluray_compat=0 / constrained_intra=0 / bframes=3 / b_pyramid=2 / b_adapt=1 / b_bias=0 / direct=1 / weightb=1 / open_gop=0 / weightp=1 / keyint=250 / keyint_min=25 / scenecut=40 / intra_refresh=0 / rc_lookahead=10 / rc=2pass / mbtree=1 / bitrate=2500 / ratetol=1,0 / qcomp=0,60 / qpmin=0 / qpmax=69 / qpstep=4 / cplxblur=20,0 / qblur=0,5 / vbv_maxrate=62500 / vbv_bufsize=78125 / nal_hrd=none / filler=0 / ip_ratio=1,40 / aq=1:1,00
Default : Yes
Forced : No
Color range : Limited
Color primaries : BT.709
Transfer characteristics : BT.709
Matrix coefficients : BT.709

Audio
ID : 2
Format : AAC
Format/Info : Advanced Audio Codec
Format profile : LC
Codec ID : A_AAC
Duration : 21mn 27s
Bit rate : 169 Kbps
Channel(s) : 2 channels
Channel positions : Front: L R
Sampling rate : 48.0 KHz
Frame rate : 46.875 fps (1024 spf)
Compression mode : Lossy
Stream size : 25.9 MiB (6%)
Title : Stereo
Language : Turkish
Default : Yes
Forced : No

Comments: