Movies torrents - Other torrents

Hickey.2017.HDRip.XviD.AC3-iFT[PRiME] torrent

Download Direct: Hickey.2017.HDRip.XviD.AC3-iFT[PRiME] - No Client needed
(0) (0)
Download torrent: Hickey.2017.HDRip.XviD.AC3-iFT[PRiME] torrent download
Torrent created: 11 Jan 2017 21:54:12
Torrent added: 11 Jan 2017 22:05:03 Report this torrent as fake!
Torrent's info hash: 66A75CB6536D0FE70BE0BFEADD5AE7D39212DD48
Category: Movies / Other
Seeds: - Scraping... Last scraped 17 h ago
Leeches: -
Downloads: -
Announce(s):
Tracker S L DL
http://explodie.org:6969/announce---
http://tracker.tfile.me/announce---
http://bigfoot1942.sektori.org:6969/announce---
udp://eddie4.nl:6969/announce---
udp://tracker4.piratux.com:6969/announce---
udp://tracker.trackerfix.com:80/announce
udp://tracker.pomf.se:80/announce
udp://torrent.gresille.org:80/announce
udp://9.rarbg.me:2710/announce
udp://tracker.leechers-paradise.org:6969/announce
udp://glotorrents.pw:6969/announce
udp://tracker.opentrackr.org:1337/announce
udp://tracker.blackunicorn.xyz:6969/announce
udp://tracker.internetwarriors.net:1337/announce
udp://p4p.arenabg.ch:1337/announce
udp://tracker.coppersurfer.tk:6969/announce
udp://9.rarbg.to:2710/announce
udp://tracker.openbittorrent.com:80/announce
udp://explodie.org:6969/announce
udp://9.rarbg.com:2710/announce
udp://p4p.arenabg.com:1337/announce
udp://ipv4.tracker.harry.lu:80/announce
udp://tracker.zer0day.to:1337/announce
udp://tracker.ilibr.org:80/announce
udp://tracker.ilibr.org:6969/announce
Total Size: 1.33 GB
Files:
Hickey.2017.HDRip.XviD.AC3-iFT[PRiME]/Hickey.2017.HDRip.XviD.AC3-iFT[PRiME].avi - 1.31 GB
Hickey.2017.HDRip.XviD.AC3-iFT[PRiME]/Please Support!! Read More!!!.txt - 232 B
Hickey.2017.HDRip.XviD.AC3-iFT[PRiME]/Sample/Sample[PRiME].avi - 14.56 MB
Hickey.2017.HDRip.XviD.AC3-iFT[PRiME]/Subtitles/English.srt - 93.84 KB
Hickey.2017.HDRip.XviD.AC3-iFT[PRiME]/Torrent Downloaded From 1337x.to.txt - 69 B
Hickey.2017.HDRip.XviD.AC3-iFT[PRiME]/Torrent Downloaded From ExtraTorrent.cc.txt - 446 B
Hickey.2017.HDRip.XviD.AC3-iFT[PRiME]/Torrent downloaded from AhaShare.com.txt - 59 B

Description


Hickey.2017.HDRip.XviD.AC3-iFT[PRiME]

ImDb: http://www.imdb.com/title/tt2122355



Complete name : Hickey.2017.HDRip.XviD.AC3-iFT[PRiME].avi
Format : AVI
Format/Info : Audio Video Interleave
Format profile : OpenDML
Format settings : rec
File size : 1.31 GiB
Duration : 1 h 20 min
Overall bit rate : 2 336 kb/s
Writing application : AVI-Mux GUI 1.17.8.3, Feb 16 201019:42:50

Video
ID : 0
Format : MPEG-4 Visual
Format profile : Advanced [email protected]/* */
Format settings, BVOP : 2
Format settings, QPel : No
Format settings, GMC : No warppoints
Format settings, Matrix : Default (H.263)
Muxing mode : Packed bitstream
Codec ID : XVID
Codec ID/Hint : XviD
Duration : 1 h 20 min
Bit rate : 1 946 kb/s
Width : 720 pixels
Height : 304 pixels
Display aspect ratio : 2.35:1
Frame rate : 23.976 (23976/1000) FPS
Color space : YUV
Chroma subsampling : 4:2:0
Bit depth : 8 bits
Scan type : Progressive
Compression mode : Lossy
Bits/(Pixel*Frame) : 0.371
Stream size : 1.09 GiB (83%)
Writing library : XviD 73

Audio
ID : 1
Format : AC-3
Format/Info : Audio Coding 3
Mode extension : CM (complete main)
Format settings, Endianness : Big
Codec ID : 2000
Duration : 1 h 20 min
Bit rate mode : Constant
Bit rate : 384 kb/s
Channel(s) : 6 channels
Channel positions : Front: L C R, Side: L R, LFE
Sampling rate : 48.0 kHz
Frame rate : 31.250 FPS (1536 spf)
Compression mode : Lossy
Stream size : 221 MiB (16%)
Alignment : Aligned on interleaves
Interleave, duration : 64 ms (1.53 video frames)
Interleave, preload duration : 192 ms
Title : Hickey.track_2




Click Image To View Full Size


Click To View Screenshot
Click To View Screenshot
Click To View Screenshot

Comments: