Movies torrents - Other torrents

Naam Hai Akira (2016) 1080p Blu-Ray x264 AAC 5.1 ESub -DDR torrent

Download Direct: Naam Hai Akira (2016) 1080p Blu-Ray x264 AAC 5.1 ESub -DDR - No Client needed
(0) (0)
Download torrent: Naam Hai Akira (2016) 1080p Blu-Ray x264 AAC 5.1 ESub -DDR torrent download
Torrent created: 11 Jan 2017 05:34:03
Torrent added: 11 Jan 2017 17:25:02 Report this torrent as fake!
Torrent's info hash: A39261CDF1ABD3509EE8A0B290D44103BEC1E1E3
Category: Movies / Other
Seeds: - Scraping... Last scraped ...
Leeches: -
Downloads: -
Announce(s):
Tracker S L DL
http://explodie.org:6969/announce---
http://tracker.tfile.me/announce---
http://bigfoot1942.sektori.org:6969/announce---
udp://eddie4.nl:6969/announce---
udp://tracker4.piratux.com:6969/announce---
udp://tracker.trackerfix.com:80/announce
udp://tracker.pomf.se:80/announce
udp://torrent.gresille.org:80/announce
udp://9.rarbg.me:2710/announce
udp://tracker.leechers-paradise.org:6969/announce
udp://glotorrents.pw:6969/announce
udp://tracker.opentrackr.org:1337/announce
udp://tracker.blackunicorn.xyz:6969/announce
udp://tracker.internetwarriors.net:1337/announce
udp://p4p.arenabg.ch:1337/announce
udp://tracker.coppersurfer.tk:6969/announce
udp://9.rarbg.to:2710/announce
udp://tracker.openbittorrent.com:80/announce
udp://p4p.arenabg.com:1337/announce
udp://tracker.ilibr.org:80/announce
udp://tracker.ilibr.org:6969/announce
udp://tracker.zer0day.to:1337/announce
Total Size: 2.59 GB
Files:
Akira (2016) 1080p Blu-Ray x264 AAC 5.1 ESub -DDR/Akira (2016) 1080p Blu-Ray x274 AAC 5.1 ESub -DDR.mkv - 2.58 GB
Akira (2016) 1080p Blu-Ray x264 AAC 5.1 ESub -DDR/sample-Akira (2016) 1080p Blu-Ray x274 AAC 5.1 ESub -DDR.mkv - 7.11 MB
Akira (2016) 1080p Blu-Ray x264 AAC 5.1 ESub -DDR/A DDR Release !!!.txt - 287 B

Description





7200p Blu-Ray Rip x264

Hindi AAC 5.1 Audio

English Subs

SCREENSHOTS


SPECS


Source: Blu-ray BD50 @ HDT

Format : Matroska
File size : 2.58 GiB
Duration : 2 h 16 min
Overall bit rate : 2 698 kb/s

Video
Format : AVC
Format/Info : Advanced Video Codec
Format profile : [email protected]/* */
Format settings, CABAC : Yes
Format settings, ReFrames : 5 frames
Codec ID : V_MPEG4/ISO/AVC
Duration : 2 h 16 min
Bit rate : 2 500 kb/s
Width : 1 920 pixels
Height : 800 pixels
Display aspect ratio : 2.40:1
Frame rate mode : Constant
Frame rate : 24.000 FPS
Color space : YUV
Chroma subsampling : 4:2:0
Bit depth : 8 bits
Scan type : Progressive
Bits/(Pixel*Frame) : 0.068
Stream size : 2.39 GiB (93%)
Default : Yes
Forced : No
Color range : Limited
Color primaries : BT.709
Transfer characteristics : BT.709
Matrix coefficients : BT.709

Audio #1
Format : AAC
Format/Info : Advanced Audio Codec
Format profile : LC
Codec ID : A_AAC
Duration : 2 h 16 min
Bit rate : 192 kb/s
Channel(s) : 6 channels
Channel positions : Front: L C R, Side: L R, LFE
Sampling rate : 48.0 kHz
Frame rate : 46.875 FPS (1024 spf)
Compression mode : Lossy
Delay relative to video : 9 ms
Stream size : 188 MiB (7%)
Language : Hindi
Default : Yes
Forced : No

SAMPLE Included



A DDR Exclusive Encode



Comments: