Movies torrents - Other torrents

Undercover.Hooligan.2016.HDRip.XviD.AC3-EVO[PRiME] torrent

Download Direct: Undercover.Hooligan.2016.HDRip.XviD.AC3-EVO[PRiME] - No Client needed
(0) (0)
Download torrent: Undercover.Hooligan.2016.HDRip.XviD.AC3-EVO[PRiME] torrent download
Torrent created: 11 Jan 2017 17:04:12
Torrent added: 11 Jan 2017 17:25:02 Report this torrent as fake!
Torrent's info hash: DBD40E262A5CCB5B70381832F6CDA08CF4E18AA7
Category: Movies / Other
Seeds: - Scraping... Last scraped 5 h ago
Leeches: -
Downloads: -
Announce(s):
Tracker S L DL
http://explodie.org:6969/announce---
http://tracker.tfile.me/announce---
http://bigfoot1942.sektori.org:6969/announce---
udp://eddie4.nl:6969/announce---
udp://tracker4.piratux.com:6969/announce---
udp://tracker.trackerfix.com:80/announce
udp://tracker.pomf.se:80/announce
udp://torrent.gresille.org:80/announce
udp://9.rarbg.me:2710/announce
udp://tracker.leechers-paradise.org:6969/announce
udp://glotorrents.pw:6969/announce
udp://tracker.opentrackr.org:1337/announce
udp://tracker.blackunicorn.xyz:6969/announce
udp://tracker.internetwarriors.net:1337/announce
udp://p4p.arenabg.ch:1337/announce
udp://tracker.coppersurfer.tk:6969/announce
udp://9.rarbg.to:2710/announce
udp://tracker.openbittorrent.com:80/announce
udp://explodie.org:6969/announce
udp://9.rarbg.com:2710/announce
udp://p4p.arenabg.com:1337/announce
udp://ipv4.tracker.harry.lu:80/announce
udp://tracker.zer0day.to:1337/announce
udp://tracker.ilibr.org:80/announce
udp://tracker.ilibr.org:6969/announce
Total Size: 1.38 GB
Files:
Undercover.Hooligan.2016.HDRip.XviD.AC3-EVO[PRiME]/Please Support!! Read More!!!.txt - 232 B
Undercover.Hooligan.2016.HDRip.XviD.AC3-EVO[PRiME]/Sample/sample[PRiME].avi - 28.88 MB
Undercover.Hooligan.2016.HDRip.XviD.AC3-EVO[PRiME]/Torrent Downloaded From 1337x.to.txt - 69 B
Undercover.Hooligan.2016.HDRip.XviD.AC3-EVO[PRiME]/Torrent Downloaded From ExtraTorrent.cc.txt - 446 B
Undercover.Hooligan.2016.HDRip.XviD.AC3-EVO[PRiME]/Torrent downloaded from AhaShare.com.txt - 59 B
Undercover.Hooligan.2016.HDRip.XviD.AC3-EVO[PRiME]/Undercover.Hooligan.2016.HDRip.XviD.AC3-EVO[PRiME].avi - 1.35 GB

Description


Undercover.Hooligan.2016.HDRip.XviD.AC3-EVO[PRiME]

ImDb: http://www.imdb.com/title/tt3741150



Complete name : Undercover.Hooligan.2016.HDRip.XviD.AC3-EVO[PRiME].avi
Format : AVI
Format/Info : Audio Video Interleave
File size : 1.35 GiB
Duration : 1 h 30 min
Overall bit rate : 2 145 kb/s
Writing library : VirtualDub build 32593/release

Video
ID : 0
Format : MPEG-4 Visual
Format profile : Advanced [email protected]/* */
Format settings, BVOP : 2
Format settings, QPel : No
Format settings, GMC : No warppoints
Format settings, Matrix : Default (H.263)
Muxing mode : Packed bitstream
Codec ID : XVID
Codec ID/Hint : XviD
Duration : 1 h 30 min
Bit rate : 1 751 kb/s
Width : 720 pixels
Height : 304 pixels
Display aspect ratio : 2.35:1
Frame rate : 25.000 FPS
Color space : YUV
Chroma subsampling : 4:2:0
Bit depth : 8 bits
Scan type : Progressive
Compression mode : Lossy
Bits/(Pixel*Frame) : 0.320
Stream size : 1.10 GiB (82%)
Writing library : XviD 66

Audio
ID : 1
Format : AC-3
Format/Info : Audio Coding 3
Mode extension : CM (complete main)
Format settings, Endianness : Big
Codec ID : 2000
Duration : 1 h 30 min
Bit rate mode : Constant
Bit rate : 384 kb/s
Channel(s) : 6 channels
Channel positions : Front: L C R, Side: L R, LFE
Sampling rate : 48.0 kHz
Frame rate : 31.250 FPS (1536 spf)
Compression mode : Lossy
Stream size : 247 MiB (18%)
Alignment : Aligned on interleaves
Interleave, duration : 40 ms (1.00 video frame)
Interleave, preload duration : 512 ms




Click Image To View Full Size


Click To View Screenshot
Click To View Screenshot
Click To View Screenshot

Comments: