Movies torrents - Other torrents

Lady Bloodfight (2016)1080p Blu-Ray x264 DTSHD 5.1 -DDR torrent

Download Direct: Lady Bloodfight (2016)1080p Blu-Ray x264 DTSHD 5.1 -DDR - No Client needed
(0) (0)
Download torrent: Lady Bloodfight (2016)1080p Blu-Ray x264 DTSHD 5.1 -DDR torrent download
Torrent created: 11 Jan 2017 04:04:34
Torrent added: 11 Jan 2017 17:05:02 Report this torrent as fake!
Torrent's info hash: 4B34FAA2094A791A54A9F7D0B5702EAF2F9D0D18
Category: Movies / Other
Seeds: 153 Scraping... Last scraped 5 h ago
Leeches: 134
Downloads: 309
Announce(s):
Tracker S L DL
http://explodie.org:6969/announce---
http://tracker.tfile.me/announce---
http://bigfoot1942.sektori.org:6969/announce---
udp://eddie4.nl:6969/announce---
udp://tracker4.piratux.com:6969/announce---
udp://tracker.trackerfix.com:80/announce
udp://tracker.pomf.se:80/announce
udp://torrent.gresille.org:80/announce
udp://9.rarbg.me:2710/announce
udp://tracker.leechers-paradise.org:6969/announce
udp://glotorrents.pw:6969/announce
udp://tracker.opentrackr.org:1337/announce
udp://tracker.blackunicorn.xyz:6969/announce
udp://tracker.internetwarriors.net:1337/announce
udp://p4p.arenabg.ch:1337/announce
udp://tracker.coppersurfer.tk:6969/announce
udp://9.rarbg.to:2710/announce
udp://tracker.openbittorrent.com:80/announce
udp://p4p.arenabg.com:1337/announce
udp://tracker.ilibr.org:80/announce
udp://tracker.ilibr.org:6969/announce
udp://tracker.zer0day.to:1337/announce
Total Size: 9.34 GB
Files:
Lady Bloodfight (2016)1080p Blu-Ray x264 DTSHD 5.1 -DDR/Lady Bloodfight (2016)1080p Blu-Ray x264 DTSHD 5.1 -DDR.mkv - 9.29 GB
Lady Bloodfight (2016)1080p Blu-Ray x264 DTSHD 5.1 -DDR/sample-Lady Bloodfight (2016)1080p Blu-Ray x264 DTSHD 5.1 -DDR.mkv - 46.85 MB
Lady Bloodfight (2016)1080p Blu-Ray x264 DTSHD 5.1 -DDR/A DDR Release !!!.txt - 287 B
Lady Bloodfight (2016)1080p Blu-Ray x264 DTSHD 5.1 -DDR/Torrent downloaded from ExtraTorrent.cc.txt - 28 B

Description




HQ 1080p Blu-Ray Rip x264

English DTSHD-MA 5.1 Audio

Danish/Finish/Norwegian/Swedish Subs

SCREENSHOTS


SPECS


Source: Blu-ray

Format : Matroska
File size : 9.29 GiB
Duration : 1 h 36 min
Overall bit rate : 13.8 Mb/s

Video
Format : AVC
Format/Info : Advanced Video Codec
Format profile : [email protected]/* */
Format settings, CABAC : Yes
Format settings, ReFrames : 5 frames
Codec ID : V_MPEG4/ISO/AVC
Duration : 1 h 36 min
Bit rate : 10.0 Mb/s
Width : 1 920 pixels
Height : 800 pixels
Display aspect ratio : 2.40:1
Frame rate mode : Constant
Frame rate : 25.000 FPS
Color space : YUV
Chroma subsampling : 4:2:0
Bit depth : 8 bits
Scan type : Progressive
Bits/(Pixel*Frame) : 0.260
Stream size : 6.74 GiB (72%)
Default : Yes
Forced : No
Color range : Limited
Color primaries : BT.709
Transfer characteristics : BT.709
Matrix coefficients : BT.709

Audio #1
Format : DTS
Format/Info : Digital Theater Systems
Format profile : MA / Core
Mode : 16
Format settings, Endianness : Big
Codec ID : A_DTS
Duration : 1 h 36 min
Bit rate mode : Variable / Constant
Bit rate : 3 722 kb/s / 1 509 kb/s
Channel(s) : 6 channels
Channel positions : Front: L C R, Side: L R, LFE
Sampling rate : 48.0 kHz
Frame rate : 93.750 FPS (512 spf)
Bit depth : 24 bits
Compression mode : Lossless / Lossy
Stream size : 2.51 GiB (27%)
Language : English
Default : Yes
Forced : No

Chapters : YES

SAMPLE Included



A DDR Exclusive Encode



Comments: