Movies torrents - Other torrents

Wajah Tum Ho - 2016 - HDRip - 1CD - x264 - AAC - Makintos13.mkv torrent

Download Direct: Wajah Tum Ho - 2016 - HDRip - 1CD - x264 - AAC - Makintos13.mkv - No Client needed
(0) (0)
Download torrent: Wajah Tum Ho - 2016 - HDRip - 1CD - x264 - AAC - Makintos13.mkv torrent download
Torrent created: 11 Jan 2017 16:40:16
Torrent added: 11 Jan 2017 17:05:02 Report this torrent as fake!
Torrent's info hash: D43E89A839344914AC0E1DFA0CE654C530D3BDDC
Category: Movies / Other
Seeds: - Scraping... Last scraped 3 h ago
Leeches: -
Downloads: -
Announce(s):
Tracker S L DL
http://explodie.org:6969/announce---
http://tracker.tfile.me/announce---
http://bigfoot1942.sektori.org:6969/announce---
udp://eddie4.nl:6969/announce---
udp://tracker4.piratux.com:6969/announce---
udp://tracker.trackerfix.com:80/announce
udp://tracker.pomf.se:80/announce
udp://torrent.gresille.org:80/announce
udp://9.rarbg.me:2710/announce
udp://tracker.leechers-paradise.org:6969/announce
udp://glotorrents.pw:6969/announce
udp://tracker.opentrackr.org:1337/announce
udp://tracker.blackunicorn.xyz:6969/announce
udp://tracker.internetwarriors.net:1337/announce
udp://p4p.arenabg.ch:1337/announce
udp://tracker.coppersurfer.tk:6969/announce
udp://9.rarbg.to:2710/announce
udp://tracker.openbittorrent.com:80/announce
udp://tracker.ilibr.org:80/announce
udp://tracker.zer0day.to:1337/announce
udp://p4p.arenabg.com:1337/announce
udp://explodie.org:6969/announce
udp://ipv4.tracker.harry.lu:80/announce
udp://9.rarbg.com:2710/announce
udp://tracker.ilibr.org:6969/announce
Total Size: 697.64 MB
Files:
Wajah Tum Ho - 2016 - HDRip - 1CD - x264 - AAC - Makintos13.mkv - 697.64 MB

Description

Wajah Tum Ho - 2016 - HDRip - 1CD - x264 - AAC - Makintos13



Format : Matroska
Format version : Version 4 / Version 2
File size : 698 MiB
Duration : 2 h 10 min
Overall bit rate : 746 kb/s


Video
ID : 2
Format : AVC
Format/Info : Advanced Video Codec
Format profile : [email protected]/* */
Format settings, CABAC : Yes
Format settings, ReFrames : 4 frames
Codec ID : V_MPEG4/ISO/AVC
Duration : 2 h 10 min
Bit rate : 680 kb/s
Width : 720 pixels
Height : 304 pixels
Display aspect ratio : 2.35:1
Frame rate mode : Constant
Frame rate : 25.000 FPS
Color space : YUV
Chroma subsampling : 4:2:0
Bit depth : 8 bits
Scan type : Progressive
Bits/(Pixel*Frame) : 0.124
Stream size : 636 MiB (91%)
Writing library : x264 core 148 r2638 7599210
Default : Yes
Forced : No

Audio
ID : 1
Format : AAC
Format/Info : Advanced Audio Codec
Format profile : LC
Codec ID : A_AAC
Duration : 2 h 10 min
Bit rate : 64.1 kb/s
Channel(s) : 2 channels
Channel positions : Front: L R
Sampling rate : 48.0 kHz
Frame rate : 46.875 FPS (1024 spf)
Compression mode : Lossy
Delay relative to video : 80 ms
Stream size : 60.0 MiB (9%)
Title : Stereo
Language : Hindi
Default : Yes
Forced : No

Source : WebHD @ DDR [Thanks]



Screens:


Comments: