Movies torrents - Other torrents

Patel.for.Sale.2016.Hindi.1080p.WEB-DL.H264.AAC2.0-DDR torrent

Download Direct: Patel.for.Sale.2016.Hindi.1080p.WEB-DL.H264.AAC2.0-DDR - No Client needed
(0) (0)
Download torrent: Patel.for.Sale.2016.Hindi.1080p.WEB-DL.H264.AAC2.0-DDR torrent download
Torrent created: 10 Jan 2017 22:08:08
Torrent added: 11 Jan 2017 16:45:02 Report this torrent as fake!
Torrent's info hash: F27FE0357DEFD3CEE31662F92F4AC6747A072FDD
Category: Movies / Other
Seeds: - Scraping... Last scraped 11 h ago
Leeches: -
Downloads: -
Announce(s):
Tracker S L DL
http://explodie.org:6969/announce---
http://tracker.tfile.me/announce---
http://bigfoot1942.sektori.org:6969/announce---
udp://eddie4.nl:6969/announce---
udp://tracker4.piratux.com:6969/announce---
udp://tracker.trackerfix.com:80/announce
udp://tracker.pomf.se:80/announce
udp://torrent.gresille.org:80/announce
udp://9.rarbg.me:2710/announce
udp://tracker.leechers-paradise.org:6969/announce
udp://glotorrents.pw:6969/announce
udp://tracker.opentrackr.org:1337/announce
udp://tracker.blackunicorn.xyz:6969/announce
udp://tracker.internetwarriors.net:1337/announce
udp://p4p.arenabg.ch:1337/announce
udp://tracker.coppersurfer.tk:6969/announce
udp://9.rarbg.to:2710/announce
udp://tracker.openbittorrent.com:80/announce
udp://p4p.arenabg.com:1337/announce
udp://tracker.ilibr.org:80/announce
udp://tracker.ilibr.org:6969/announce
udp://tracker.zer0day.to:1337/announce
Total Size: 2.7 GB
Files:
Patel.for.Sale.2016.1080p.WEB-DL.H264.AAC2.0-DDR/Patel.for.Sale.2016.1080p.WEB-DL.H264.AAC2.0-DDR.mkv - 2.7 GB

Description




~ Patel.for.Sale ~

~ Hindi ~

** 1080p / WEB-DL / H264 / AAC2.0 **






Code:

General
Complete name : Patel.for.Sale.2016.1080p.WEB-DL.H264.AAC2.0-DDR.mkv
Format : Matroska
Format version : Version 4 / Version 2
File size : 2.70 GiB
Duration : 2 h 2 min
Overall bit rate : 3 161 kb/s
Encoded date : UTC 2017-01-10 19:33:21
Writing application : mkvmerge v9.7.1 ('Pandemonium') 64bit
Writing library : libebml v1.3.4 + libmatroska v1.4.5

Video
ID : 1
Format : AVC
Format/Info : Advanced Video Codec
Format profile : [email protected]/* */
Format settings, CABAC : Yes
Format settings, ReFrames : 4 frames
Codec ID : V_MPEG4/ISO/AVC
Duration : 2 h 2 min
Bit rate : 2 999 kb/s
Width : 1 920 pixels
Height : 1 080 pixels
Display aspect ratio : 16:9
Frame rate mode : Constant
Frame rate : 24.000 FPS
Color space : YUV
Chroma subsampling : 4:2:0
Bit depth : 8 bits
Scan type : Progressive
Bits/(Pixel*Frame) : 0.060
Stream size : 2.56 GiB (95%)
Default : Yes
Forced : No

Audio
ID : 2
Format : AAC
Format/Info : Advanced Audio Codec
Format profile : LC
Codec ID : A_AAC
Duration : 2 h 2 min
Bit rate : 160 kb/s
Channel(s) : 2 channels
Channel positions : Front: L R
Sampling rate : 44.1 kHz
Frame rate : 43.066 FPS (1024 spf)
Compression mode : Lossy
Stream size : 140 MiB (5%)
Default : Yes
Forced : No












A DDR Exclusive Release...


Comments: