Movies torrents - Other torrents

Independence Day Resurgence (2016) 2160p 4K UltraHD BluRay (x265 ... torrent

Download Direct: Independence Day Resurgence (2016) 2160p 4K UltraHD BluRay (x265 ... - No Client needed
(0) (0)
Download torrent: Independence Day Resurgence (2016) 2160p 4K UltraHD BluRay (x265 ... torrent download
Torrent created: 10 Jan 2017 12:35:50
Torrent added: 11 Jan 2017 16:05:03 Report this torrent as fake!
Torrent's info hash: 31D3A3B083D3408B9700EBE3C55860734300DA9A
Category: Movies / Other
Seeds: - Scraping... Last scraped 11 min ago
Leeches: -
Downloads: -
Announce(s):
Tracker S L DL
http://explodie.org:6969/announce---
http://tracker.tfile.me/announce---
http://bigfoot1942.sektori.org:6969/announce---
udp://eddie4.nl:6969/announce---
udp://tracker4.piratux.com:6969/announce---
udp://tracker.trackerfix.com:80/announce
udp://tracker.pomf.se:80/announce
udp://torrent.gresille.org:80/announce
udp://9.rarbg.me:2710/announce
udp://tracker.leechers-paradise.org:6969/announce
udp://glotorrents.pw:6969/announce
udp://tracker.opentrackr.org:1337/announce
udp://tracker.blackunicorn.xyz:6969/announce
udp://tracker.internetwarriors.net:1337/announce
udp://p4p.arenabg.ch:1337/announce
udp://tracker.coppersurfer.tk:6969/announce
udp://9.rarbg.to:2710/announce
udp://tracker.openbittorrent.com:80/announce
udp://p4p.arenabg.com:1337/announce
udp://tracker.ilibr.org:80/announce
udp://tracker.ilibr.org:6969/announce
udp://tracker.zer0day.to:1337/announce
Total Size: 54.35 GB
Files:
Independence Day Resurgence (2016) 2160p 4K UltraHD BluRay (x265 HEVC 10bit BT709) DTS-HD MA 5.1 -DDR/Independence Day Resurgence (2016) 2160p 4K UltraHD BluRay (x265 HEVC 10bit BT709) DTS-HD MA 7.1 -DDR.mkv - 54.14 GB
Independence Day Resurgence (2016) 2160p 4K UltraHD BluRay (x265 HEVC 10bit BT709) DTS-HD MA 5.1 -DDR/sample-Independence Day Resurgence (2016) 2160p 4K UltraHD BluRay (x265 HEVC 10bit BT709) DTS-HD MA 7.1 -DDR.mkv - 221.52 MB
Independence Day Resurgence (2016) 2160p 4K UltraHD BluRay (x265 HEVC 10bit BT709) DTS-HD MA 5.1 -DDR/A DDR Release !!!.txt - 287 B
Independence Day Resurgence (2016) 2160p 4K UltraHD BluRay (x265 HEVC 10bit BT709) DTS-HD MA 5.1 -DDR/Torrent Exclusivity for DesiTorrents & ExtraTorrent.txt - 28 B
Independence Day Resurgence (2016) 2160p 4K UltraHD BluRay (x265 HEVC 10bit BT709) DTS-HD MA 5.1 -DDR/Torrent downloaded from ExtraTorrent.cc.txt - 28 B

Description




2160p UHD 4K Blu-Ray Rip
HEVC 10 Bits BT709

English DTSHD-MA 7.1 Audio
English/French/Portugues/Spanish Subtitle(s)

SCREENSHOTS


SPECS

Note:
Audio + Subs + Chapter files are from BD50 HD Blu-Ray synced and mixed to UHD-4K Video from ZEUS.

High End CPU + GPU is required to play very high bitrate 4K.
Fully tested with :
- PC with PotPlayer V 1.6 / Xeon Broadwell CPU / NVidia GTX1080
- Nvidia Shield streaming through PLEX on Samsung TV

Format : Matroska
File size : 54.1 GiB
Duration : 1 h 59 min
Overall bit rate : 64.7 Mb/s

Video
Format : HEVC
Format/Info : High Efficiency Video Coding
Format profile : Main [email protected]/* */@Main
Codec ID : V_MPEGH/ISO/HEVC
Duration : 1 h 59 min
Bit rate : 59.7 Mb/s
Width : 3 840 pixels
Height : 2 160 pixels
Display aspect ratio : 16:9
Frame rate mode : Constant
Frame rate : 23.976 (24000/1001) FPS
Color space : YUV
Chroma subsampling : 4:2:0
Bit depth : 10 bits
Bits/(Pixel*Frame) : 0.300
Stream size : 49.9 GiB (92%)
Default : Yes
Forced : No
Color range : Limited
Color primaries : BT.709
Transfer characteristics : BT.709
Matrix coefficients : BT.601

Audio #1
Format : DTS
Format/Info : Digital Theater Systems
Format profile : MA / ES Matrix / Core
Mode : 16
Format settings, Endianness : Big
Codec ID : A_DTS
Duration : 1 h 59 min
Bit rate mode : Variable / Constant / Constant
Bit rate : 5 023 kb/s / 1 509 kb/s / 1 509 kb/s
Channel(s) : 8 channels / 7 channels / 6 channels
Channel positions : Front: L C R, Side: L R, Back: L R, LFE / Front: L C R, Side: L R, Back: C, LFE / Front: L C R, Side: L R, LFE
Sampling rate : 48.0 kHz
Frame rate : 93.750 FPS (512 spf)
Bit depth : 24 bits
Compression mode : Lossless / Lossy / Lossy
Delay relative to video : 2 s 600 ms
Stream size : 4.20 GiB (8%)
Title : DTS-HD Master Audio English 5023 kbps 7.1 / 48 kHz / 5023 kbps / 24-bit
Language : English
Default : No
Forced : No

Chapters : YES


SAMPLE Included


A DDR Exclusive



Comments: