Movies torrents - Other torrents

Shelley.2016.BluRay.720p.DTS.5.1.x264.dxva-FraMeSToR[PRiME] torrent

Download Direct: Shelley.2016.BluRay.720p.DTS.5.1.x264.dxva-FraMeSToR[PRiME] - No Client needed
(0) (0)
Download torrent: Shelley.2016.BluRay.720p.DTS.5.1.x264.dxva-FraMeSToR[PRiME] torrent download
Torrent created: 11 Jan 2017 14:20:41
Torrent added: 11 Jan 2017 14:45:02 Report this torrent as fake!
Torrent's info hash: 50373E8B52669A4CF4997D0AE29C8875F7915523
Category: Movies / Other
Seeds: - Scraping... Last scraped 23 h ago
Leeches: -
Downloads: -
Announce(s):
Tracker S L DL
http://explodie.org:6969/announce---
http://tracker.tfile.me/announce---
http://bigfoot1942.sektori.org:6969/announce---
udp://eddie4.nl:6969/announce---
udp://tracker4.piratux.com:6969/announce---
udp://tracker.trackerfix.com:80/announce
udp://tracker.pomf.se:80/announce
udp://torrent.gresille.org:80/announce
udp://9.rarbg.me:2710/announce
udp://tracker.leechers-paradise.org:6969/announce
udp://glotorrents.pw:6969/announce
udp://tracker.opentrackr.org:1337/announce
udp://tracker.blackunicorn.xyz:6969/announce
udp://tracker.internetwarriors.net:1337/announce
udp://p4p.arenabg.ch:1337/announce
udp://tracker.coppersurfer.tk:6969/announce
udp://9.rarbg.to:2710/announce
udp://tracker.openbittorrent.com:80/announce
udp://explodie.org:6969/announce
udp://9.rarbg.com:2710/announce
udp://p4p.arenabg.com:1337/announce
udp://ipv4.tracker.harry.lu:80/announce
udp://tracker.zer0day.to:1337/announce
udp://tracker.ilibr.org:80/announce
udp://tracker.ilibr.org:6969/announce
Total Size: 4.71 GB
Files:
Shelley.2016.BluRay.720p.DTS.5.1.x264.dxva-FraMeSToR[PRiME]/Please Support!! Read More!!!.txt - 232 B
Shelley.2016.BluRay.720p.DTS.5.1.x264.dxva-FraMeSToR[PRiME]/Shelley.2016.BluRay.720p.DTS.5.1.x264.dxva-FraMeSToR[PRiME].mkv - 4.71 GB
Shelley.2016.BluRay.720p.DTS.5.1.x264.dxva-FraMeSToR[PRiME]/Torrent Downloaded From 1337x.to.txt - 69 B
Shelley.2016.BluRay.720p.DTS.5.1.x264.dxva-FraMeSToR[PRiME]/Torrent Downloaded From ExtraTorrent.cc.txt - 446 B
Shelley.2016.BluRay.720p.DTS.5.1.x264.dxva-FraMeSToR[PRiME]/Torrent downloaded from AhaShare.com.txt - 59 B

Description


Shelley.2016.BluRay.720p.DTS.5.1.x264.dxva-FraMeSToR[PRiME]

ImDb: http://www.imdb.com/title/tt5013688



Complete name : Shelley.2016.BluRay.720p.DTS.5.1.x264.dxva-FraMeSToR[PRiME].mkv
Format : Matroska
Format version : Version 4 / Version 2
File size : 4.71 GiB
Duration : 1 h 32 min
Overall bit rate : 7 304 kb/s
Movie name : Find more FraMeSToR releases at Beyond-HD.me
Encoded date : UTC 2017-01-10 02:50:41
Writing application : mkvmerge v9.7.1 ('Pandemonium') 64bit
Writing library : libebml v1.3.4 + libmatroska v1.4.5

Video
ID : 1
Format : AVC
Format/Info : Advanced Video Codec
Format profile : [email protected]/* */
Format settings, CABAC : Yes
Format settings, ReFrames : 12 frames
Codec ID : V_MPEG4/ISO/AVC
Duration : 1 h 32 min
Bit rate : 5 650 kb/s
Width : 1 280 pixels
Height : 528 pixels
Display aspect ratio : 2.40:1
Frame rate mode : Constant
Frame rate : 23.976 (24000/1001) FPS
Color space : YUV
Chroma subsampling : 4:2:0
Bit depth : 8 bits
Scan type : Progressive
Bits/(Pixel*Frame) : 0.349
Stream size : 3.65 GiB (77%)
Title : FraMeSToR / MPEG-4 AVC Video / 5744 kbps / 23.976 fps / High Profile 4.1
Writing library : x264 core 142 r2431+42 c69a006 tMod [[email protected]/* */:2:0 X86]
Encoding settings : cabac=1 / ref=12 / deblock=1:-2:-2 / analyse=0x3:0x113 / me=umh / subme=10 / psy=1 / fade_compensate=0.50 / psy_rd=0.90:0.00 / mixed_ref=1 / me_range=48 / chroma_me=1 / trellis=2 / 8x8dct=1 / cqm=0 / deadzone=11,6 / fast_pskip=0 / chroma_qp_offset=-2 / threads=12 / lookahead_threads=2 / sliced_threads=0 / nr=0 / decimate=1 / interlaced=0 / bluray_compat=0 / constrained_intra=0 / fgo=0 / bframes=9 / b_pyramid=2 / b_adapt=2 / b_bias=0 / direct=3 / weightb=1 / open_gop=0 / weightp=2 / keyint=240 / keyint_min=23 / scenecut=40 / intra_refresh=0 / rc_lookahead=120 / rc=crf / mbtree=1 / crf=11.8000 / qcomp=0.60 / qpmin=0:0:0 / qpmax=34:34:34 / qpstep=4 / vbv_maxrate=30000 / vbv_bufsize=38000 / crf_max=0.0 / nal_hrd=none / filler=0 / ip_ratio=1.40 / aq=4:0.98 / aq-sensitivity=10.00 / aq-factor=1.00:1.00:1.00 / aq2=0 / aq3=0
Language : English
Default : Yes
Forced : No
Color range : Limited
Color primaries : BT.709
Transfer characteristics : BT.709
Matrix coefficients : BT.709

Audio
ID : 2
Format : DTS
Format/Info : Digital Theater Systems
Mode : 16
Format settings, Endianness : Big
Codec ID : A_DTS
Duration : 1 h 32 min
Bit rate mode : Constant
Bit rate : 1 509 kb/s
Channel(s) : 6 channels
Channel positions : Front: L C R, Side: L R, LFE
Sampling rate : 48.0 kHz
Frame rate : 93.750 FPS (512 spf)
Bit depth : 24 bits
Compression mode : Lossy
Stream size : 997 MiB (21%)
Title : FraMeSToR / DTS / 5.1 / 48 kHz / 1509 kbps / 24-bit
Language : English
Default : Yes
Forced : No

Text #1
ID : 3
Format : PGS
Codec ID : S_HDMV/PGS
Codec ID/Info : Picture based subtitle format used on BDs/HD-DVDs
Title : English-Forced
Language : English
Default : Yes
Forced : Yes

Text #2
ID : 4
Format : PGS
Codec ID : S_HDMV/PGS
Codec ID/Info : Picture based subtitle format used on BDs/HD-DVDs
Title : English
Language : English
Default : No
Forced : No

Text #3
ID : 5
Format : PGS
Codec ID : S_HDMV/PGS
Codec ID/Info : Picture based subtitle format used on BDs/HD-DVDs
Title : Spanish
Language : Spanish
Default : No
Forced : No

Menu
00:00:00.000 : :Chapter 01
00:09:05.211 : :Chapter 02
00:18:18.472 : :Chapter 03
00:24:38.185 : :Chapter 04
00:32:48.800 : :Chapter 05
00:40:08.656 : :Chapter 06
00:49:10.030 : :Chapter 07
00:55:59.564 : :Chapter 08
01:04:48.801 : :Chapter 09
01:12:36.268 : :Chapter 10
01:20:35.372 : :Chapter 11
01:29:11.220 : :Chapter 12




Click Image To View Full Size


Click To View Screenshot
Click To View Screenshot
Click To View Screenshot

Comments: