Series / TV Shows torrents - BBC torrents

BBC Adele in New York City WebRip x264-MCTV torrent

Download Direct: BBC Adele in New York City WebRip x264-MCTV - No Client needed
(0) (0)
Download torrent: BBC Adele in New York City WebRip x264-MCTV torrent download
Torrent created: 13 Dec 2016 03:13:16
Torrent added: 13 Dec 2016 15:20:11 Report this torrent as fake!
Torrent's info hash: 48D08DBB28F5BC5166E662E587E377019792669F
Category: Series / TV Shows / BBC
Seeds: 2 Scraping... Last scraped 12 h ago
Leeches: 0
Downloads: 185
Announce(s):
Tracker S L DL
udp://tracker.coppersurfer.tk:6969/announce---
udp://tracker.zer0day.to:1337/announce---
udp://ipv4.tracker.harry.lu:80/announce---
udp://tracker.opentrackr.org:1337/announce---
udp://p4p.arenabg.com:1337/announce20185
udp://inferno.demonoid.pw:3393/announce
udp://tracker.mg64.net:2710/announce
udp://tracker.ilibr.org:80/announce
udp://tracker.tiny-vps.com:6969/announce
udp://tracker.pirateparty.gr:6969/announce
udp://tracker.coppersurfer.tk:80/announce
udp://tracker.ilibr.org:6969/announce
udp://9.rarbg.me:2710/announce
udp://explodie.org:6969/announce
udp://inferno.subdemon.com:3395/announce
Total Size: 421.08 MB
Files:
BBC.Adele.in.New.York.City.WebRip.x264-MCTV/BBC.Adele.in.New.York.City.WebRip.x264-MCTV.mp4 - 420.99 MB
BBC.Adele.in.New.York.City.WebRip.x264-MCTV/English.srt - 58.45 KB
BBC.Adele.in.New.York.City.WebRip.x264-MCTV/MulvaCodedTV.jpg - 30.31 KB

Description

BBC Adele in New York City WebRip x264-MCTV

http://www.bbc.co.uk/programmes/b084xt1h

Airdate : 9 Dec 2016



Adele in New York City

Grammy Award-winning singer Adele performs in New York at Radio City Music Hall, performing landmark songs from throughout her career.



English subtitles included

====================DISCLAMER====================

I've been plagued by mass 1 ratings out of spite

and jealousy by user Cat and the many dupes he

seems to create on an almost daily basis. A quick

look in his events shows the trolling nature of

this member.



This sorry excuse of a mommies boy is a heavy meth

user and every time the drugs flow through his

system he comes to take it out on my torrent

ratings. Only a good old tweaker would find

the time,energy and gusto needed to literally

down-rate HUNDREDS of someone else's torrents with

multiple accounts.



So please take these ratings

with a grain of salt and judge for yourself.

Thank you...

=================================================




Screenshots

Click to enlarge

5cf02b6103dfa9887c8eab3c35bcd29d.md.jpg 660e7c311212816d87c9759a3e0d291f.md.jpg

33e3c9ed50b52b398056e16d2e1e79a8.md.jpg 56e7859e68c93ca6931003b7d0bda398.gif



MulvaCoded-Banner.jpg



Format : MPEG-4

Format profile : Base Media

Codec ID : isom (isom/avc1)

File size : 421 MiB

Duration : 1 h 3 min

Overall bit rate mode : Variable

Overall bit rate : 927 kb/s

Encoded date : UTC 2016-12-13 01:11:16

Tagged date : UTC 2016-12-13 01:11:16



Video

ID : 1

Format : AVC

Format/Info : Advanced Video Codec

Format profile : [email protected]/* */

Format settings, CABAC : Yes

Format settings, ReFrames : 8 frames

Codec ID : avc1

Codec ID/Info : Advanced Video Coding

Duration : 1 h 3 min

Bit rate : 827 kb/s

Maximum bit rate : 2 170 kb/s

Width : 720 pixels

Height : 404 pixels

Display aspect ratio : 16:9

Frame rate mode : Constant

Frame rate : 25.000 FPS

Color space : YUV

Chroma subsampling : 4:2:0

Bit depth : 8 bits

Scan type : Progressive

Bits/(Pixel*Frame) : 0.114

Stream size : 375 MiB (89%)

Writing library : x264 core 148 r2705 3f5ed56

Encoding settings : cabac=1 / ref=8 / deblock=1:0:0 / analyse=0x3:0x113 / me=umh / subme=9 / psy=1 / psy_rd=1.00:0.00 / mixed_ref=1 / me_range=24 / chroma_me=1 / trellis=1 / 8x8dct=1 / cqm=0 / deadzone=21,11 / fast_pskip=1 / chroma_qp_offset=-2 / threads=6 / lookahead_threads=1 / sliced_threads=0 / nr=0 / decimate=1 / interlaced=0 / bluray_compat=0 / constrained_intra=0 / bframes=5 / b_pyramid=2 / b_adapt=2 / b_bias=0 / direct=3 / weightb=1 / open_gop=0 / weightp=2 / keyint=250 / keyint_min=25 / scenecut=40 / intra_refresh=0 / rc_lookahead=60 / rc=crf / mbtree=1 / crf=23.0 / qcomp=0.60 / qpmin=0 / qpmax=69 / qpstep=4 / ip_ratio=1.40 / aq=2:1.00

Encoded date : UTC 2016-12-13 01:11:16

Tagged date : UTC 2016-12-13 01:11:26



Audio

ID : 2

Format : AAC

Format/Info : Advanced Audio Codec

Format profile : LC

Codec ID : 40

Duration : 1 h 3 min

Bit rate mode : Variable

Bit rate : 96.0 kb/s

Maximum bit rate : 106 kb/s

Channel(s) : 2 channels

Channel positions : Front: L R

Sampling rate : 48.0 kHz

Frame rate : 46.875 FPS (1024 spf)

Compression mode : Lossy

Stream size : 43.6 MiB (10%)

Title : BBC.Adele.in.New.York.City.WebRip.x264-MCTV.aac#audio - Imported with GPAC 0.5.0-rev

Encoded date : UTC 2016-12-13 01:11:25

Tagged date : UTC 2016-12-13 01:11:26



Text

ID : 3

Format : Timed Text

Muxing mode : sbtl

Codec ID : tx3g

Duration : 1 h 3 min

Bit rate mode : Variable

Bit rate : 60 b/s

Stream size : 27.7 KiB (0%)

Title : BBC.Adele.in.New.York.City.WebRip.x264-MCTV.srt:hdlr=sbtl:lang=en:group=2:layer=-1 - Imported with GPAC 0.5.0-rev

Language : English

Default : Yes

Forced : No

Alternate group : 2

Encoded date : UTC 2016-12-13 01:11:26

Tagged date : UTC 2016-12-13 01:11:26

Comments: