Series / TV Shows torrents - BBC torrents

Adele in New York City torrent

Download Direct: Adele in New York City - No Client needed
(0) (0)
Download torrent: Adele in New York City torrent download
Torrent created: 10 Dec 2016 14:05:52
Torrent added: 13 Dec 2016 14:26:02 Report this torrent as fake!
Torrent's info hash: 0497459E5CFEC10C8C0FA93E47C4703C6275F6E3
Category: Series / TV Shows / BBC
Seeds: 3 Scraping... Last scraped 7 h ago
Leeches: 2
Downloads: 3
Announce(s):
Tracker S L DL
udp://tracker.opentrackr.org:1337/announce---
udp://9.rarbg.me:2710/announce---
udp://tracker.coppersurfer.tk:6969/announce---
udp://9.rarbg.me:2780/announce---
udp://tracker.leechers-paradise.org:6969/announce---
udp://9.rarbg.me:2720/announce
udp://bt.firebit.co.uk:6969/announce
udp://eddie4.nl:6969/announce
udp://explodie.org:6969/announce
udp://inferno.demonoid.com:3408/announce
Total Size: 1.04 GB
Files:
Adele in New York City/Adele in New York City.mp4 - 1.04 GB
Adele in New York City/Adele in New York City.jpg - 642.94 KB
Adele in New York City/About this torrent.txt - 1.61 KB
Adele in New York City/Adele in New York City.srt - 55.13 KB
Adele in New York City/Torrent Downloaded From ExtraTorrent.cc.txt - 0 B

Description

Adele in New York City



Grammy Award-winning singer Adele performs in New York at Radio City Music Hall, showcasing songs from her album 25. The show also features Adele interacting with her fans from the iconic Radio City stage and performing landmark songs from throughout her career. Cameras were also rolling behind the scenes in the days leading up to the concert, offering exclusive access to the preparations for this extraordinary event.



(with soft subtitles)



First broadcast: 9 December 2016

Duration: 1 hour



d9d135db813329af4302e712ccf9aad5.md.jpg



Media info:



General

Format profile : Base Media

Codec ID : isom (isom/iso2/avc1/mp41)

File size : 1.04 GiB

Duration : 1h 3mn

Overall bit rate mode : Variable

Overall bit rate : 2 351 Kbps

Writing application : Lavf57.25.100



Video

ID : 1

Format : AVC

Format/Info : Advanced Video Codec

Format profile : [email protected]/* */

Format settings, CABAC : Yes

Format settings, ReFrames : 2 frames

Codec ID : avc1

Codec ID/Info : Advanced Video Coding

Duration : 1h 3mn

Bit rate mode : Variable

Bit rate : 2 252 Kbps

Maximum bit rate : 3 500 Kbps

Width : 1 280 pixels

Height : 720 pixels

Display aspect ratio : 16:9

Frame rate mode : Constant

Frame rate : 25.000 fps

Color space : YUV

Chroma subsampling : 4:2:0

Bit depth : 8 bits

Scan type : Progressive

Bits/(Pixel*Frame) : 0.098

Stream size : 1 023 MiB (96%)



Audio

ID : 2

Format : AAC

Format/Info : Advanced Audio Codec

Format profile : LC

Codec ID : 40

Duration : 1h 3mn

Bit rate mode : Constant

Bit rate : 93.5 Kbps

Channel(s) : 2 channels

Channel positions : Front: L R

Sampling rate : 48.0 KHz

Frame rate : 46.875 fps (1024 spf)

Compression mode : Lossy

Stream size : 42.5 MiB (4%)

Comments: