Add to favorites

Series / TV Shows torrents - Other torrents

Mr. And Mrs. Murder S01e05-08 [XviD - Eng - HardSub Ita]-GaNNiCO MIRCrew [TNT Village] torrent


Download Direct: Mr. And Mrs. Murder S01e05-08 [XviD - Eng - HardSub Ita]-GaNNiCO MIRCrew [TNT Village] - No Client needed
Download torrent: Mr. And Mrs. Murder S01e05-08 [XviD - Eng - HardSub Ita]-GaNNiCO MIRCrew [TNT Village] torrent download
Torrent created: 02 Aug 2013 19:32:05
Torrent added: 04 Aug 2013 15:26:05 by robbyrs
Torrent's info hash: EB6912395B327037911C8B6770C1F01095953A64
Category: Series / TV Shows / Other
Language: English
Seeds: - Scraping... Last scraped ...
Leeches: -
Downloads: -
Announce(s):
Tracker S L DL
http://tracker.tntvillage.scambioetico.org:2710/announce---
udp://tracker.tntvillage.scambioetico.org:2710/announce---
udp://fr33dom.h33t.com:3310/announce---
http://tracker2.torrentbox.com:2710/announce---
http://tracker.torrentbox.com:2710/announce---
http://tracker1.torrentbox.com:2710/announce
http://tracker.podtropolis.com:2711/announce
udp://tracker.1337x.org:80/announce
udp://tracker.openbittorrent.com:80/announce
http://tracker.openbittorrent.com:80/announce
udp://tracker.istole.it:80/announce
http://9.rarbg.com:2710/announce
udp://tracker.btscene.eu:80/announce
Total Size: 1.24 GB
Files:
Mr.and.Mrs.Murder.S01E05-08.iTALiAN.SUBBED.PDTV.XviD-GaNNiCO/Mr.and.mrs.murder.1x08.hardsub.ita.avi - 330.69 MB
Mr.and.Mrs.Murder.S01E05-08.iTALiAN.SUBBED.PDTV.XviD-GaNNiCO/Mr.And.Mrs.Murder.S01E05.iTALiAN.SUBBED.HDTV.XviD-GaNNiCO.avi - 347.67 MB
Mr.and.Mrs.Murder.S01E05-08.iTALiAN.SUBBED.PDTV.XviD-GaNNiCO/mr.and.mrs.murder.s01e06.italian.subbed.hdtv.xvid_gannico.avi - 267.01 MB
Mr.and.Mrs.Murder.S01E05-08.iTALiAN.SUBBED.PDTV.XviD-GaNNiCO/Mr.and.Mrs.Murder.s01e07.hardsub.ita.avi - 321.64 MB



Download Direct - No Client needed

Mr. And Mrs. Murder S01e05-08 [XviD - Eng - HardSub Ita]-GaNNiCO MIRCrew [TNT Village] Torrent Description
Mr. And Mrs. Murder S01e05-08 [XviD - Eng - HardSub Ita]-GaNNiCO MIRCrew [TNT Village]





image



image





Mr. And Mrs. Murder S01e05-08







grazie a subsfactory



Episodi presenti:



1x03 In Vogue



1x04 Atlas Drugged





image



Genre Comedy, Drama

Created by Shaun Micallef

Jason Stephens



Composer(s) Dan Luscombe & Echo Set

Country of origin Australia

Original language(s) English

No. of series 1

No. of episodes 13

Production

Executive producer(s) Rick Maier

Jason Stephens

Producer(s) Andrew Walker

Jason Stephens

Shaun Micallef (associate)

Kat Stewart (associate)

Location(s) Melbourne, Australia

Running time 60 minutes

Production company(s) FremantleMedia Australia

Broadcast

Original channel Network Ten

Audio format 576i (SDTV)

Original run 20 February 2013 – present



image









image



Shaun Micallef

Kat Stewart

Jonny Pasvolsky

Lucy Honigman





image



Mr. & Mrs. Murder sono Charlie (Shaun Micallef) e Nicola Buchanan (Kat Stewart), pulitori delle scene del crimine le cui capacità uniche permettono loro di risolvere i delitti più



enigmatici. L’enorme memoria di Charlie per gli avvenimenti, combinata con il profondo senso della giustizia, le capacità osservative e l’empatia di Nicola, consentono di catturare ogni



assassino impunito, per aiutare il detective Peter Vinetti (Jonny Pasvolsky), un tempo innamorato di Nicola ed ora appoggiato stabilmente alla coppia per superare ogni ostacolo nella



risoluzione dei suoi casi........



image



image



image







DATI FILE:

General

Complete name : Mr.And.Mrs.Murder.S01E-----.iTALiAN.SUBBED.PDTV.XviD-GaNNiCO.avi

Format : AVI

Format/Info : Audio Video Interleave

File size : 348 MiB

Duration : 43mn 47s

Overall bit rate : 1 110 Kbps



Video

ID : 0

Format : MPEG-4 Visual

Format profile : Advanced Simple@L5

Format settings, BVOP : Yes

Format settings, QPel : No

Format settings, GMC : No warppoints

Format settings, Matrix : Default (H.263)

Codec ID : XVID

Codec ID/Hint : XviD

Duration : 43mn 47s

Bit rate : 976 Kbps

Width : 704 pixels

Height : 400 pixels

Display aspect ratio : 16:9

Frame rate : 25.000 fps

Color space : YUV

Chroma subsampling : 4:2:0

Bit depth : 8 bits

Scan type : Progressive

Bits/(Pixel*Frame) : 0.139

Stream size : 306 MiB (88%)

Writing library : XviD 1.2.1 (UTC 2008-12-04)



Audio

ID : 1

Format : MPEG Audio

Format version : Version 1

Format profile : Layer 3

Mode : Joint stereo

Mode extension : MS Stereo

Codec ID : 55

Codec ID/Hint : MP3

Duration : 43mn 47s

Bit rate mode : Constant

Bit rate : 128 Kbps

Channel(s) : 2 channels

Sampling rate : 48.0 KHz

Stream size : 40.1 MiB (12%)

Alignment : Aligned on interleaves

Interleave, duration : 160 ms (4.00 video frames)

Interleave, preload duration : 216 ms

Title : mr.and.mrs.murder.s01e03.pdtv.x264-fqm.mp4_track_1_english

Writing library : LAME3.99r

Encoding settings : -m j -V 4 -q 2 -lowpass 17 -b 128















image











TNT Village MIRCrew

Comments