Adult torrents - Video torrents

Horny Teen Brunette Girls Loves Hard Anal Fuck torrent

Download Direct: Horny Teen Brunette Girls Loves Hard Anal Fuck - No Client needed
(0) (0)
Download torrent: Horny Teen Brunette Girls Loves Hard Anal Fuck torrent download
Torrent created: 29 Apr 2013 13:34:15
Torrent added: 29 Apr 2013 18:05:01 Report this torrent as fake!
Torrent's info hash: D3291CF2663BF2D4B59AF6FC881BC19DF1EFBDE4
Category: Adult / Video
Seeds: - Scraping... Last scraped ...
Leeches: -
Downloads: -
Announce(s):
Tracker S L DL
http://fr33dom.h33t.com:3310/announce---
udp://tracker.openbittorrent.com:80---
udp://tracker.istole.it:80/announce---
udp://tracker.publicbt.com:80/announce---
http://tracker.torrent.to:2710/announce---
udp://tracker.1337x.org:80/announce
http://torrent-downloads.to:5869/announce
Total Size: 230.1 MB
Files:
Horny Teen Brunette Girls Loves Hard Anal Fuck.avi - 230.1 MB

Description

Horny Teen Brunette Girls Loves Hard Anal Fuck



Screen:

http://amateurfreak.org/share-7974_517E4BC9.html

http://amateurfreak.org/share-4096_517E4BC9.html

http://amateurfreak.org/share-D6DF_517E4BC9.html



File Size: 230 Mb | Resolution: 640x480 | Duration: 16:33 | Format: .avi



Format                                   : AVI

Format/Info                              : Audio Video Interleave

File size                                : 230 MiB

Duration                                 : 16mn 33s

Overall bit rate                         : 1 943 Kbps

Writing application                      : Lavf52.32.0



Video

ID                                       : 0

Format                                   : MPEG-4 Visual

Format profile                           : Simple@L1

Format settings, BVOP                    : No

Format settings, QPel                    : No

Format settings, GMC                     : No warppoints

Format settings, Matrix                  : Default (H.263)

Codec ID                                 : DIVX

Codec ID/Info                            : Project Mayo

Codec ID/Hint                            : DivX 4

Duration                                 : 16mn 33s

Bit rate                                 : 1 611 Kbps

Width                                    : 640 pixels

Height                                   : 480 pixels

Display aspect ratio                     : 2.000

Frame rate                               : 23.976 fps

Color space                              : YUV

Chroma subsampling                       : 4:2:0

Bit depth                                : 8 bits

Scan type                                : Progressive

Compression mode                         : Lossy

Bits/(Pixel*Frame)                       : 0.219

Stream size                              : 191 MiB (83%)

Writing library                          : Lavc52.22.3



Audio

ID                                       : 1

Format                                   : MPEG Audio

Format version                           : Version 1

Format profile                           : Layer 3

Mode                                     : Joint stereo

Mode extension                           : MS Stereo

Codec ID                                 : 55

Codec ID/Hint                            : MP3

Duration                                 : 16mn 33s

Bit rate mode                            : Constant

Bit rate                                 : 320 Kbps

Channel(s)                               : 2 channels

Sampling rate                            : 44.1 KHz

Compression mode                         : Lossy

Stream size                              : 37.9 MiB (16%)

Alignment                                : Aligned on interleaves

Interleave, duration                     : 26 ms (0.63 video frame)

Interleave, preload duration             : 130 ms

Writing library                          : LAME3.98.2



Screenshot:

[img][/img]

Comments: